66
PUNTOS
Calificar
CALIFICA
Calificar
Califica y/o escribe un comentario sobre la película.
Comentarios en el foroFORO

Bashtata (2020)

El día siguiente al fallecimiento de Valentina, su desconsolado marido Vassil y su hijo Pavel descubren que la difunta realiza llamadas al teléfono de una vecina. Vassil, que es un crédulo aficionado a los fenómenos paranormales, emprende un viaje con el fin de entrevistarse con un reputado parapsicólogo. Su determinación termina por obligar a su hijo, del que se encuentra distanciado, a acompañarlo para evitar que su anciano padre, que no parece estar enteramente en sus cabales, corra peligro.
Director Kristina Grozeva, Petar Valchanov
Actores Ivan Barnev, Ivan Savov, Tanya Shahova, Hristofor Nedkov
Duración 87 min
Streaming (Servicio externo)
Grupo: BulIT
Versión: WebRip x264 720p
Tamaño: 1.5 GB
General
Unique ID                   : 187636420968734131208329327268450002505 (0x8D2975CE5D7F43DF6920891AADEFE649)
Complete name               : The.Father.(2019).720p.BULGARIAN.WebRip.x264.AAC.2.0-BulIT.mkv
Format                      : Matroska
Format version              : Version 4
File size                   : 1.42 GiB
Duration                    : 1 h 26 min
Overall bit rate            : 2 339 kb/s
Encoded date                : UTC 2020-10-03 16:04:47
Writing application         : mkvmerge v50.0.0 ('Awakenings') 64-bit
Writing library             : libebml v1.4.0 + libmatroska v1.6.2

Video
ID                          : 1
Format                      : AVC
Format/Info                 : Advanced Video Codec
Format profile              : [email protected]
Format settings             : CABAC / 4 Ref Frames
Format settings, CABAC      : Yes
Format settings, Reference  : 4 frames
Codec ID                    : V_MPEG4/ISO/AVC
Duration                    : 1 h 26 min
Bit rate                    : 2 208 kb/s
Width                       : 1 280 pixels
Height                      : 538 pixels
Display aspect ratio        : 2.40:1
Frame rate mode             : Constant
Frame rate                  : 25.000 FPS
Color space                 : YUV
Chroma subsampling          : 4:2:0
Bit depth                   : 8 bits
Scan type                   : Progressive
Bits/(Pixel*Frame)          : 0.128
Stream size                 : 1.34 GiB (94%)
Writing library             : x264 core 157 r2969
Default                     : Yes
Forced                      : No

Audio
ID                          : 2
Format                      : AAC LC
Format/Info                 : Advanced Audio Codec Low Complexity
Codec ID                    : A_AAC-2
Duration                    : 1 h 26 min
Bit rate                    : 128 kb/s
Channel(s)                  : 2 channels
Channel layout              : L R
Sampling rate               : 44.1 kHz
Frame rate                  : 43.066 FPS (1024 SPF)
Compression mode            : Lossy
Stream size                 : 79.9 MiB (5%)
Language                    : Bulgarian
Default                     : Yes
Forced                      : No
Trailer