62
PUNTOS
Calificar
CALIFICA
Calificar
Califica y/o escribe un comentario sobre la película.
Comentarios en el foroFORO

The Golden Compass (2007)

Historia de una niña de 12 años que hará un largo viaje para intentar salvar a un amigo. En el camino se encontrará con todo tipo de extrañas criaturas, brujas y otros personajes de un universo paralelo... En este singular mundo, donde las almas humanas toman la forma de compañeros del género animal, esta niña se coloca entre el fin de la libre voluntad y el inicio de una nueva era. Lyra Belacqua sólo tiene 12 años, pero incluso ella sabe que hacer lo que te dicen en lugar de hacer lo sientes está bien puede tener resultados muy diferentes. Una huérfana rebelde que vive como una reclusa en Jordan College en la ciudad de Oxford, Lyra pertenece a un mundo que es uno de muchos mundos paralelos: mundos no vistos, dimensiones intangibles donde la humanidad se desarrolla con sutiles diferencias. Pero Lyra nunca está sola en el suyo. Ella va a todas partes con su daimonion, un pequeño animal, siempre cambiante llamado Pantalaimon. En otros mundos, el alma reside dentro del cuerpo de las personas, oculta y en silencio. En el suyo, el daimonion es un compañero de por vida. Pero el mundo de Lyra está cambiando. El supremo cuerpo de gobierno llamado el Magisterium está apretando sus garras contra la población. Su oscura maniobra ha dado lugar a una erupción de secuestros de niños por una fuerza misteriosa llamada los Gobblers (Zampones).
Director Chris Weitz
Actores Nicole Kidman, Daniel Craig, Dakota Blue Richards
Duración 113 min
País USA | UK
Streaming (Servicio externo)
Grupo: PUKKA
Versión: DVDRip XviD PROPER
Tamaño: 700 MB
    Source..........: R1 NTSC
    Video Bitrate...: 780 kbps
    Audio Bitrate...: 128 kbps ABR MP3
    Resolution......: 640 x 272
    FPS.............: 23,97
    Runtime.........: 112m
    Release Date....: 16-04-2008
    Size............: 701Mb

Subtitulos

Grupo: Chakra
Versión: BDRip x264 720p AC3
Tamaño: 4.37 GB
    video : 4884 kbps
    audio : 640 kbps AC3
    resolution : 1280x528
    size : 4479 MB

Subtitulos

Grupo: LRC
Versión: DVDScr XviD AC3
Tamaño: 1.4 GB
    Release Date:    25/01/08
    DVD Retail Date:  TBA
    Film Genre:      Adventure / Drama /
    Family / Fantasy / Thriller
    Codec Type:      XVID
    IMDB Rating:      6.6

    Video Bitrate:    1265 kb/s XViD
    Audio Quality:    448 kbps CBR 5.1 AC3
    Video Resolution: 576x304
    Release Size:    2x 50x15Mb
    Video Framerate:  23.976 FPS
    Subtitles:        NONE 

Subtitulos

Grupo: BeStDivX
Versión: DVDRip XviD NUKED
Tamaño: 700 MB
    General
    Complete name                    : D:\eMule\The.Golden.Compass.DVDRip.XviD-BeStDivX.[sharethefiles.com].avi
    Format                           : AVI
    Format/Info                      : Audio Video Interleave
    File size                        : 700 MiB
    Duration                         : 1h 53mn
    Overall bit rate                 : 864 Kbps
    Writing application              : VirtualDubMod 1.5.10.2 (build 2540/release)
    Writing library                  : VirtualDubMod build 2540/release

    Video
    ID                               : 0
    Format                           : MPEG-4 Visual
    Format profile                   : Advanced [email protected]
    Format settings, BVOP            : Yes
    Format settings, QPel            : No
    Format settings, GMC             : No warppoints
    Format settings, Matrix          : Default (MPEG)
    Muxing mode                      : Packed bitstream
    Codec ID                         : XVID
    Codec ID/Hint                    : XviD
    Duration                         : 1h 53mn
    Bit rate                         : 717 Kbps
    Width                            : 672 pixels
    Height                           : 272 pixels
    Display aspect ratio             : 2.471
    Frame rate                       : 23.976 fps
    Color space                      : YUV
    Chroma subsampling               : 4:2:0
    Bit depth                        : 8 bits
    Scan type                        : Progressive
    Bits/(Pixel*Frame)               : 0.164
    Stream size                      : 581 MiB (83%)
    Writing library                  : XviD 666

    Audio
    ID                               : 1
    Format                           : MPEG Audio
    Format version                   : Version 1
    Format profile                   : Layer 3
    Mode                             : Joint stereo
    Mode extension                   : MS Stereo
    Codec ID                         : 55
    Codec ID/Hint                    : MP3
    Duration                         : 1h 53mn
    Bit rate mode                    : Variable
    Bit rate                         : 135 Kbps
    Channel(s)                       : 2 channels
    Sampling rate                    : 48.0 KHz
    Stream size                      : 109 MiB (16%)
    Alignment                        : Aligned on interleaves
    Interleave, duration             : 24 ms (0.58 video frame)
    Interleave, preload duration     : 168 ms
    Writing library                  : LAME3.98 (beta)

Subtitulos