77
PUNTOS
Calificar
CALIFICA
Calificar
Califica y/o escribe un comentario sobre la película.
Comentarios en el foroFORO

Malcolm X (1992)

Malcolm Little (1925–1965) nació en Omaha (Nebraska). Su padre, ministro baptista, murió siendo él niño, y su madre acabó en un psiquiátrico cuando el Ku Klux Klan incendió su casa. Después de ser rechazado por el ejército, cayó en la delincuencia y fue a parar a la cárcel. Allí se convirtió al Islam y cambió radicalmente su vida, convirtiéndose pronto en un carismático líder del movimiento de liberación de la comunidad negra norteamericana.
Director Spike Lee
Actores Denzel Washington, Angela Bassett, Delroy Lindo, Spike Lee
Duración 202 min
Streaming (Servicio externo)
Grupo: FiNaLe
Versión: DVDRip XviD INTERNAL
Tamaño: 700 MB
UUUUUUUUUUUUUUUUUUUUUUUUUUUUUUUUUUUUUUUUUUUUUUUUUUUUUUUUUUUUUUUUUUUUUUUUUUUU
UUUUUU                                                                UUUUUU
UU  UU      Malcolm.X.1992.CD1.iNTERNAL.DVDRip.XviD-FiNaLe.avi        UU  UU
UUUUUU                                                                UUUUUU
UUUUUUUUUUUUUUUUUUUUUUUUUUUUUUUUUUUUUUUUUUUUUUUUUUUUUUUUUUUUUUUUUUUUUUUUUUUU
UU  UU                                                                UU  UU
UU  UU      Total Size ........: 700.06 MB                            UU  UU
UUUUUU      Total Streams .....: 2                                    UUUUUU
UUUUUU                                                                UUUUUU
UU  UU      Video Size ........: 596.26 MB                            UU  UU
UU  UU      Video Length ......: 01:54:11                             UU  UU
UUUUUU      Video Codec Code ..: XVID                                 UUUUUU
UUUUUU      Video Codec Name ..: XviD MPEG-4 codec                    UUUUUU
UU  UU      Video Bitrate .....: 730 kb/s                             UU  UU
UU  UU      Resolution ........: 544 x 304                            UU  UU
UUUUUU      Aspect Ratio ......: 1.78:1                               UUUUUU
UUUUUU      Total Frames ......: 171275                               UUUUUU
UU  UU      Framerate .........: 25 FPS                               UU  UU
UU  UU      Color Depth .......: 16 Bits                              UU  UU
UUUUUU      Quality Factor ....: 0.176 b/px                           UUUUUU
UUUUUU                                                                UUUUUU
UU  UU      Audio Size ........: 103.79 MB                            UU  UU
UU  UU      Audio Length ......: 01:54:11                             UU  UU
UUUUUU      Audio Codec Code ..: 85                                   UUUUUU
UUUUUU      Audio Codec Name ..: MPEG-1 Layer 3 (MP3)                 UUUUUU
UU  UU      Audio Bitrate .....: 127 kb/s                             UU  UU
UU  UU      Channels ..........: 2                                    UU  UU
UUUUUU      Sampling Rate .....: 48000 Hz                             UUUUUU
UU  UU                                                                UU  UU
UUUUUUUUUUUUUUUUUUUUUUUUUUUUUUUUUUUUUUUUUUUUUUUUUUUUUUUUUUUUUUUUUUUUUUUUUUUU

Subtitulos

Grupo: RARBG
Versión: BDRip H.264 1080p AAC
Tamaño: 3.8 GB
Malcolm.X.1992.1080p.BluRay.H264.AAC-RARBG

Video
ID : 1
Format : AVC
Format/Info : Advanced Video Codec
Format profile : [email protected]
Format settings : CABAC / 4 Ref Frames
Format settings, CABAC : Yes
Format settings, ReFrames : 4 frames
Codec ID : avc1
Codec ID/Info : Advanced Video Coding
Duration : 3 h 21 min
Bit rate : 2 500 kb/s
Width : 1 920 pixels
Height : 1 080 pixels
Display aspect ratio : 16:9
Frame rate mode : Constant
Frame rate : 23.976 (23976/1000) FPS
Color space : YUV
Chroma subsampling : 4:2:0
Bit depth : 8 bits
Scan type : Progressive
Bits/(Pixel*Frame) : 0.050
Stream size : 3.52 GiB (92%)
Writing library : x264 core 152 r2851M ba24899
Encoding settings : cabac=1 / ref=4 / deblock=1:-1:-1 / analyse=0x3:0x113 / me=umh / subme=9 / psy=1 / psy_rd=1.00:0.15 / mixed_ref=1 / me_range=24 / chroma_me=1 / trellis=2 / 8x8dct=1 / cqm=0 / deadzone=21,11 / fast_pskip=1 / chroma_qp_offset=-3 / threads=32 / lookahead_threads=4 / sliced_threads=0 / nr=0 / decimate=1 / interlaced=0 / bluray_compat=0 / constrained_intra=0 / bframes=3 / b_pyramid=2 / b_adapt=2 / b_bias=0 / direct=3 / weightb=1 / open_gop=0 / weightp=2 / keyint=250 / keyint_min=25 / scenecut=40 / intra_refresh=0 / rc_lookahead=50 / rc=2pass / mbtree=1 / bitrate=2500 / ratetol=1.0 / qcomp=0.60 / qpmin=0 / qpmax=69 / qpstep=4 / cplxblur=20.0 / qblur=0.5 / vbv_maxrate=31250 / vbv_bufsize=31250 / nal_hrd=none / filler=0 / ip_ratio=1.40 / aq=3:1.00
Encoded date : UTC 2018-03-22 18:24:51
Tagged date : UTC 2018-03-22 18:24:51

Audio
ID : 2
Format : AAC
Format/Info : Advanced Audio Codec
Format profile : LC
Codec ID : mp4a-40-2
Duration : 3 h 21 min
Bit rate mode : Constant
Bit rate : 224 kb/s
Channel(s) : 2 channels
Channel(s)_Original : 6 channels
Channel positions : Front: L C R, Side: L R, LFE
Sampling rate : 48.0 kHz
Frame rate : 46.875 FPS (1024 SPF)
Compression mode : Lossy
Stream size : 323 MiB (8%)
Language : English
Default : Yes
Alternate group : 1
Encoded date : UTC 2018-03-22 18:24:51
Tagged date : UTC 2018-03-22 18:24:51

Subtitulos

Grupo: CiNEFiLE
Versión: BDRip x264 1080p DTS
Tamaño: 14.2 GB
Malcolm.X.1992.1080p.BluRay.x264-CiNEFiLE

Release Date ......: 01/19/12

Video .............. x264 @ 8572
Audio .............. English DTS 1510kbit/s
Subtitles .......... English
Length ............. 201 min 41 sec
Size ............... 14.21 GiB
Trailer