52
PUNTOS
Calificar
CALIFICA
Calificar
Califica y/o escribe un comentario sobre la película.
Comentarios en el foroFORO

Outcast (2010)

Mary y su joven hijo Fergal se mudan a una nueva casa. No tardaremos en darnos cuenta de que ellos están huyendo de algo, se esconden atemorizados de la posibilidad de que sean encontrados. Evitan hacer amigos allí donde van y de estrechar lazos con nadie. Fergal se verá atrapado entre el cariño de su bella y animada vecina y una madre agresivamente protectora de que no se detendrá ante nada para proteger a su hijo. Mary tiene reglas estrictas que gobiernan la vida de Fergal sin la cuales reinarían el caos y el terror. Su cazador se llama Cathal, un hombre peligroso cuya intención es matar a Mary y Fergal, y para ello utiliza una antigua clase de magia oscura. La única defensa de Mary es utilizar la misma clase de magia para proteger a su hijo. Cuando la gente del lugar empieza a aparecer brutalmente asesinada por una fuerza desconocida, el temor se agrava ¿Es Cathal la bestia responsable de estas matanzas o es la bestia que él trata de destruir?
Director Colm McCarthy
Actores David Baxter, Therese Bradley, Niall Bruton
País UK | Ireland
Streaming (Servicio externo)
Grupo: UNVEiL
Versión: DVDRip XviD
Tamaño: 700 MB
General
Complete name                    : outcast.2010.dvdrip.xvid-unveil.avi
Format                           : AVI
Format/Info                      : Audio Video Interleave
File size                        : 697 MiB
Duration                         : 1h 33mn
Overall bit rate                 : 1 039 Kbps
Writing application              : VirtualDubMod 1.5.10.2 (build 2540/release)
Writing library                  : VirtualDubMod build 2540/release

Video
ID                               : 0
Format                           : MPEG-4 Visual
Format profile                   : Advanced [email protected]
Format settings, BVOP            : Yes
Format settings, QPel            : No
Format settings, GMC             : No warppoints
Format settings, Matrix          : Default (H.263)
Codec ID                         : XVID
Codec ID/Hint                    : XviD
Duration                         : 1h 33mn
Bit rate                         : 910 Kbps
Width                            : 640 pixels
Height                           : 352 pixels
Display aspect ratio             : 16:9
Frame rate                       : 25.000 fps
Resolution                       : 8 bits
Colorimetry                      : 4:2:0
Scan type                        : Progressive
Bits/(Pixel*Frame)               : 0.162
Stream size                      : 610 MiB (88%)
Writing library                  : XviD 1.2.1 (UTC 2008-12-04)

Audio
ID                               : 1
Format                           : MPEG Audio
Format version                   : Version 1
Format profile                   : Layer 3
Mode                             : Joint stereo
Format_Settings_ModeExtension    : MS Stereo
Codec ID                         : 55
Codec ID/Hint                    : MP3
Duration                         : 1h 33mn
Bit rate mode                    : Variable
Bit rate                         : 116 Kbps
Minimum bit rate                 : 32.0 Kbps
Channel(s)                       : 2 channels
Sampling rate                    : 48.0 KHz
Stream size                      : 77.9 MiB (11%)
Alignment                        : Aligned on interleaves
Interleave, duration             : 24 ms (0.60 video frame)
Interleave, preload duration     : 158 ms
Writing library                  : LAME3.98r
Encoding settings                : -m j -V 5 -q 2 -lowpass 16.5 --vbr-new -b 32

Subtitulos