74
PUNTOS
Calificar
CALIFICA
Calificar
Califica y/o escribe un comentario sobre la película.
Comentarios en el foroFORO

Chronicle (2012)

Tres jóvenes estudiantes hacen un asombroso descubrimiento a raíz del cual son dotados de superpoderes. En el proceso de tomar conciencia y control de sus habilidades para su propio beneficio, los tres se verán inmersos poco a poco en una descontrolada espiral de violencia cuando sus respectivos lados oscuros empiecen a salir a la luz...
Director Josh Trank
Actores Dane DeHaan, Alex Russell, Michael B. Jordan
Duración 84 min
País UK | USA
Streaming (Servicio externo)
Grupo: SPARKS
Versión: DVDRip XviD SyncFixed
Tamaño: 700 MB
Chronicle.2012.DVDRip.XviD-SPARKS

Release.Date: 25.04.2012
Video.......: XVID 1030Kbps
Frame.Rate..: 23.976
Resolution..: 640x352
Audio.......: MPEG-1 Stereo VBR 128Kbps
Language....: English
Length......: 1h 28m
Source......: Retail DVD
Size........: 700MB
Subtitles...: English, Spanish.

IMDb: http://www.imdb.com/title/tt1706593/

Ya es la versión con el problema del audio fixeado!

Subtitulos

Grupo: DoNE
Versión: BDRip XviD DC
Tamaño: 700 MB
...... proudly presents.......

-= Chronicle.DC.BDRip.XviD-DoNE =-
Directed by Josh Trank

RELEASE INFO

original name .....: Chronicle
also known as .....:
ripper.............: Team DoNE
video codec........: XviD MPEG 4 Codec
video bitrate......: 963 kbps
audio codec........: MP3 128kbs
disks..............: 1CD (50x15MB)
aspect ratio.......: 16:9
resolution.........: 640x352
genre..............: Drama Sci-Fi Thriller
runtime............: 89 mins
country............: USA
language...........: English
subtitles..........: English
XviD release.......: 27/04/2012
DVD release........: 15/05/2012
UK.theatre release.:
US.theatre release.: 5 February 2012 (2,907 Screens)

Subtitulos

Grupo: REFiNED
Versión: BDRip x264 720p DC DTS
Tamaño: 4.4 GB
Chronicle (2012)

http://www.imdb.com/title/tt1706593/

RATiNG .....: 7.4/10 (28,064 votes)
ViDEO ......: 1280688  5475 kbps
AUDiO ......: 1510 kbps DTS
RUNTiME ....: 88 min
SiZE .......: 4.37GB
SUBTiTLES ..: English
NOTES ......:

LooKiNG FoR.:

Supplier who can bring NEW unreleased
MOVIES / GAMES

wannajoinhush.com or find us on iRC

GReeTiNGs...:

NeDiVx - MPTDVD - AMIABLE - REWARD - LOADER
CHARGED - ZRY - PSPKiNG - iRONiSO

Subtitulos

Grupo: CHD
Versión: BDRip x264 720p DC DTS
Tamaño: 5.0 GB
Chronicle.2012.Directors.Cut.BluRay.720p.DTS.x264-CHD
RELEASE DATE....: 27/04/2012
THEATRE DATE....: 2012
iMDB URL........: http://www.imdb.com/title/tt1706593/
iMDB RATiNG.....: 7.4/10 from 28,064
GENRE...........: Drama | Sci-Fi | Thriller
SOURCE .........: Chronicle 2012 Directors Cut 2in1 BluRay 1080p AVC DTS-HD MA5.1-CHDBits
ViDEO BiTRATE...: x264 L4.1 High @ 6502 Kbps
FRAME RATE......: 23.976 fps
AUDiO ..........: ENG DTS 5.1CH 1536Kbps
RUNTiME.........: 01:29:31 (h:m:s)
ASPECT RATiO....: 1.853 : 1
RESOLUTiON......: 1280 X 690
SUBTiTLES.......: N/A
FilE SiZE.......: 5G
ENCODER.........: SweetSmile@CHD

x264 [info]: frame I:672 Avg QP:17.28 size:116304
x264 [info]: frame P:33441 Avg QP:18.47 size: 49373
x264 [info]: frame B:94671 Avg QP:19.67 size: 27702

Subtitulos

Grupo: CHD
Versión: BDRip x264 1080p DC DTS
Tamaño: 8.7 GB
Chronicle.2012.Director's.Cut.BluRay.1080p.DTS.x264-CHD

RELEASE DATE....: 04/27/2012
THEATRE DATE....: 2012
iMDB URL........: http://www.imdb.com/title/tt1706593/
iMDB RATiNG.....: 7.4/10 from 28,064
GENRE...........: Drama | Sci-Fi | Thriller
SOURCE..........: Chronicle 2012 Directors Cut 2in1 BluRay 1080p AVC DTS-HD MA5.1-CHDBits
ViDEO BiTRATE...: x264 @ 12420 Kbps
FRAME RATE......: 23.976 fps
AUDiO 1 BiTRATE.: ENG DTS-CORE 5.1CH @ 1536 kbps
RUNTiME ........: 01:29:31 (h:m:s)
ASPECT RATiO....: 1.85: 1
RESOLUTiON......: 1920 X 1036
SUBTiTLES.......: N/A
FilE SiZE.......: 8.7G
Encoder.........: chp@CHD

x264 [info]: frame I:658 Avg QP:18.37 size:201298
x264 [info]: frame P:33453 Avg QP:19.97 size: 89930
x264 [info]: frame B:94673 Avg QP:21.33 size: 54672

Subtitulos

Grupo: MiSTERE
Versión: TS XviD
Tamaño: 700 MB
    Video
    ID : 0
    Format : MPEG-4 Visual
    Format profile : Advanced Simple@L5
    Format settings, BVOP : 2
    Format settings, QPel : No
    Format settings, GMC : No warppoints
    Format settings, Matrix : Default (H.263)
    Muxing mode : Packed bitstream
    Codec ID : XVID
    Codec ID/Hint : XviD
    Duration : 1h 15mn
    Bit rate : 1 166 Kbps
    Width : 680 pixels
    Height : 288 pixels
    Display aspect ratio : 2.35:1
    Frame rate : 25.000 fps
    Color space : YUV
    Chroma subsampling : 4:2:0
    Bit depth : 8 bits
    Scan type : Progressive
    Compression mode : Lossy
    Bits/(Pixel*Frame) : 0.238
    Stream size : 629 MiB (89%)
    Writing library : XviD 64

    Audio
    ID : 1
    Format : MPEG Audio
    Format version : Version 1
    Format profile : Layer 3
    Mode : Joint stereo
    Mode extension : MS Stereo
    Codec ID : 55
    Codec ID/Hint : MP3
    Duration : 1h 15mn
    Bit rate mode : Constant
    Bit rate : 128 Kbps
    Channel(s) : 2 channels
    Sampling rate : 44.1 KHz
    Compression mode : Lossy
    Stream size : 69.0 MiB (10%)
    Alignment : Split across interleaves
    Interleave, duration : 40 ms (1.00 video frame)

    videos nice audios nicer
    want to complain go call your mother
Grupo: NoGRP
Versión: NTSC AC3 AudioLatino
Tamaño: 125 MB
Para versiones "normales".
Grupo: NoGRP
Versión: NTSC AC3 AudioLatino DC
Tamaño: 275 MB
Sin delay para las versiones DC