65
PUNTOS
Calificar
CALIFICA
Calificar
Califica y/o escribe un comentario sobre la pelĂ­cula.
Comentarios en el foroFORO

Project X (2012)

“Project X” sigue a tres anónimos estudiantes del último curso del instituto que quieren darse a conocer. Su idea es inocente: vamos a montar una fiesta que nadie pueda olvidar... pero nada podía prepararles para esta fiesta. Las noticias corren como la pólvora y arruinan sueños, manchan el historial de las personas y nacen leyendas. "Project X" es un aviso a los padres y a la policía de todas partes.
Director Nima Nourizadeh
Actores Thomas Mann, Oliver Cooper, Jonathan Daniel Brown
Duración 88 min
País USA
Streaming (Servicio externo)
Grupo: AMIABLE
Versión: DVDRip XviD
Tamaño: 700 MB
Project.X.2012.DVDRip.XviD-AMIABLE

Date .....: 29th May 2012
Runtime ..: 01:27:53
Size .....: 700mb
Video ....: 624x352 (XviD @ 23.976fps)
Audio ....: MP3 128k
Source ...: Retail DVD
Lang .....: English  
Subs .....: English / French / Spanish  
IMDB .....: http://www.imdb.com/title/tt1636826/
Rating ...: 6.5/10   13,257 votes 
Screens ..: Opening Week - $21,051,363 (USA) (4 March 2012) (3,055 Screens)
Genre ....: Comedy

Subtitulos

Grupo: AMIABLE
Versión: BDRip x264 720p EXTENDED DTS
Tamaño: 4.4 GB
Project.X.2012.EXTENDED.720p.BluRay.X264-AMIABLE
Date .....: 31st May 2012
Runtime ..: 01:33:00
Size .....: 4480mb
Video ....: 1280x720 (X264  23.976fps
Audio ....: DTS 1509k
Source ...: Retail Blu-Ray
Lang .....: English
Subs .....: English / French / Spanish / Portuguse
IMDB .....: http://www.imdb.com/title/tt1636826
Rating ...: 6.5/10  13,300 votes

Subtitulos

Grupo: ADTRG
Versión: TS XviD AC3
Tamaño: 735 MB
Video
ID : 0
Format : MPEG-4 Visual
Codec ID : XVID
Duration : 1h 17mn
Bit rate : 1 125 Kbps
Width : 480 pixels
Height : 272 pixels
Display aspect ratio : 16:9
Frame rate : 15.000 fps
Stream size : 625 MiB (85%)

Audio
ID : 1
Format : AC-3
Duration : 1h 17mn
Bit rate : 192 Kbps
Channel(s) : 2 channels
Channel positions : Front: L R
Sampling rate : 48.0 KHz
Bit depth : 16 bits
Compression mode : Lossy
Stream size : 106 MiB (14%)