73
PUNTOS
Calificar
CALIFICA
Calificar
Califica y/o escribe un comentario sobre la película.
Comentarios en el foroFORO

American Reunion (2012)

Un grupo de viejos amigos vuelven a reunirse. Jim (Jason Biggs) y Michelle (Alyson Hannigan) siguen felizmente casados, aunque hay una vecina que se ha enamorado de él. Además, la cinta sexual con Nadia se ha convertido en uno de los videos más vistos de Youtube. Por su parte, Oz (Chris Klein) vive en una mansión de Malibú, pero su novia parece sólo interesada por su dinero. Mientras tanto, la vida de Stifler (Seann William Scott) sigue siendo un desastre. Heather (Mena Suvari) sale con un cirujano que intenta parecer más joven, y Finch (Eddie Kaye Thomas), que ha viajado por el mundo, intenta ligar con Trish, una camarera amiga de Michelle.
Director Jon Hurwitz, Hayden Schlossberg
Actores Jason Biggs, Alyson Hannigan, Seann William Scott
Duración 113 min
País USA
Streaming (Servicio externo)
Grupo: COCAIN
Versión: DVDRip XviD AC3 UNRATED
Tamaño: 1.4 GB
TiTLE ......:   American Reunion
iMDB........:   http://www.imdb.com/title/tt1605630/

rATiNG......:   7.3/10 (34919)
sIZE........:   ~ 1400 MB

ViDEO.......:   1 283 Kbps
rESOLUTiON..:   624x336

aUDiO.......:   448 Kbps
fORMAT......:   AC3

sOURCE......:   Region 1 DVD

nOTES.......:

Subtitulos

Grupo: BLOW
Versión: BDRip x264 720p DTS UNRATED
Tamaño: 5.46 GB
General
Format: Matroska
Duration: 1h 53mn
Overall bit rate: 6 866 Kbps

Video
Format: AVC
Format profile:  
Bit rate: 5 360 Kbps
Resolution: 1280x688
Display aspect ratio: 1.860

Audio
Format: DTS
Bit rate: 1 510 Kbps
Channel(s): 6
Channel positions: Front: L C R, Side: L R, LFE
Sampling rate: 48.0 KHz
Language: English

Subtitulos

Grupo: BLOW
Versión: BDRip x264 1080p DTS UNRATED
Tamaño: 7.65 GB
RETAIL DATE..: 2012-07-10
DURATION.....: 01:53:51.498
SIZE.........: 7832.14 MB

VIDEO BITRATE: 8 112 Kbps
RESOLUTION...: 1920x1040

AUDIO FORMAT.: DTS
AUDIO BITRATE: 1 510 Kbps
SOURCE.......: R1 BluRay

Subtitulos

Grupo: QUARTERPAST
Versión: Cam XviD
Tamaño: 650 MB
Format : AVI
Format/Info : Audio Video Interleave
File size : 660 MiB
Duration : 1h 25mn
Overall bit rate : 1 085 Kbps
Writing application : MEncoder SVN-r33823-4.1.2
Writing library : MPlayer

Video
ID : 0
Format : MPEG-4 Visual
Format profile : Advanced Simple@L5
Format settings, BVOP : 1
Format settings, QPel : No
Format settings, GMC : No warppoints
Format settings, Matrix : Default (MPEG)
Codec ID : XVID
Codec ID/Hint : XviD
Duration : 1h 25mn
Bit rate : 944 Kbps
Width : 656 pixels
Height : 304 pixels
Display aspect ratio : 2.2:1
Frame rate : 25.000 fps
Color space : YUV
Chroma subsampling : 4:2:0
Bit depth : 8 bits
Scan type : Progressive
Compression mode : Lossy
Bits/(Pixel*Frame) : 0.189
Stream size : 574 MiB (87%)
Writing library : XviD 1.2.1 (UTC 2008-12-04)

Audio
ID : 1
Format : MPEG Audio
Format version : Version 1
Format profile : Layer 3
Mode : Joint stereo
Mode extension : MS Stereo
Codec ID : 55
Codec ID/Hint : MP3
Duration : 1h 25mn
Bit rate mode : Constant
Bit rate : 128 Kbps
Channel(s) : 2 channels
Sampling rate : 48.0 KHz
Compression mode : Lossy
Stream size : 77.8 MiB (12%)
Alignment : Aligned on interleaves
Interleave, duration : 24 ms (0.60 video frame)
Interleave, preload duration : 504 ms
Writing library : LAME3.98.4
Grupo: NoGRP
Versión: NTSC AC3 AudioLatino UNRATED
Tamaño: 300 MB
Sin delay.
Versión COCAIN: Unir los dos CDs.