46
PUNTOS
Calificar
CALIFICA
Calificar
Califica y/o escribe un comentario sobre la película.
Comentarios en el foroFORO

Freddy's Dead: The Final Nightmare (1991)

En la parte seis de la serie de películas "Pesadilla en la calle Elm", el monstruo de los sueños, Freddy Krueger, por fin ha asesinado a todos los niños de su pueblo natal, y busca escapar de sus confines para cazar gente nuevas. Para este fin, él recruta para que lo ayude a su (sin ser nombraba anteriormente) hija. Sin embargo, ella descubre el demoníaco origen de los poderes de su padre y le hace frente a su papá en una confrontación final.
Director Rachel Talalay
Actores Robert Englund, Lisa Zane, Shon Greenblatt
Duración 89 min
País USA
Streaming (Servicio externo)
Grupo: NewMov
Versión: DVDRip XviD
Tamaño: 700 MB
--- File Information ---
File Name:                                      A.Nightmare.on.Elm.Street.6.Freddy's.Dead.The.Final.Nightmare.1991.DVDRip.XviD-NewMov.avi
File Size (in bytes):                           734,332,928

--- Video Information ---
Video Codec Type(e.g. "DIV3"):                  XviD
Video Codec Name(e.g. "DivX 3, Low-Motion"):    XviD Dev ver. 25-Mar-03
Duration (hh:mm:ss):                            1:29:18
Frame Count:                                    128446
Frame Width (pixels):                           608
Frame Height (pixels):                          320
Storage Aspect Ratio("SAR")"                    1.900
Pixel Aspect Ratio ("PAR"):                     1.000
Display Aspect Ratio ("DAR"):                   1.900
Frames Per Second:                              23.976
Pics Per Second:                                23.976
Video Bitrate (kbps):                           956
MPEG-4 ("MPEG-4" or ""):                        MPEG-4
B-VOP ("B-VOP" or ""):                          B-VOP
Quality Factor (bits/pixel)/frame:              0.205"

--- Audio Information ---
Audio Codec (e.g. "AC3"):                       0x0055 MPEG-1 Layer 3
Audio Sample Rate (Hz):                         48000
Audio Bitrate(kbps):                            128
Audio Bitrate Type ("CBR" or "VBR"):            VBR
Audio Channel Count (e.g. "2" for stereo):      2

Subtitulos

Grupo: MOOVEE
Versión: BDRip x264 1080p DTS
Tamaño: 6.6 GB
Format : Matroska
Format version : Version 2
File size : 6.55 GiB
Duration : 1h 29mn
Overall bit rate : 10.5 Mbps
Encoded date : UTC 2011-11-04 06:06:05
Writing application : mkvmerge v4.9.1 ('Ich will') built on Jul 11 2011 23:53:15
Writing library : libebml v1.2.1 + libmatroska v1.1.1

Video
ID : 1
Format : AVC
Format/Info : Advanced Video Codec
Format profile : High@L4.1
Format settings, CABAC : Yes
Format settings, ReFrames : 4 frames
Muxing mode : Header stripping
Codec ID : V_MPEG4/ISO/AVC
Duration : 1h 29mn
Bit rate : 9 016 Kbps
Width : 1 920 pixels
Height : 1 080 pixels
Display aspect ratio : 16:9
Frame rate mode : Constant
Frame rate : 23.976 fps
Color space : YUV
Chroma subsampling : 4:2:0
Bit depth : 8 bits
Scan type : Progressive
Bits/(Pixel*Frame) : 0.181
Stream size : 5.48 GiB (84%)
Writing library : x264 core 119 r2106 07efeb4
Encoding settings : cabac=1 / ref=4 / deblock=1:0:0 / analyse=0x3:0x133 / me=umh / subme=8 / psy=1 / psy_rd=1.00:0.00 / mixed_ref=1 / me_range=16 / chroma_me=1 / trellis=1 / 8x8dct=1 / cqm=0 / deadzone=21,11 / fast_pskip=0 / chroma_qp_offset=-2 / threads=18 / sliced_threads=0 / nr=0 / decimate=1 / interlaced=0 / bluray_compat=0 / constrained_intra=0 / bframes=3 / b_pyramid=2 / b_adapt=1 / b_bias=0 / direct=1 / weightb=1 / open_gop=0 / weightp=2 / keyint=250 / keyint_min=23 / scenecut=40 / intra_refresh=0 / rc_lookahead=40 / rc=2pass / mbtree=1 / bitrate=9016 / ratetol=1.0 / qcomp=0.60 / qpmin=0 / qpmax=69 / qpstep=4 / cplxblur=20.0 / qblur=0.5 / ip_ratio=1.40 / aq=1:1.00
Language : English
Default : Yes
Forced : No

Audio
ID : 2
Format : DTS
Format/Info : Digital Theater Systems
Mode : 16
Format settings, Endianness : Big
Muxing mode : Header stripping
Codec ID : A_DTS
Duration : 1h 29mn
Bit rate mode : Constant
Bit rate : 1 509 Kbps
Channel(s) : 6 channels
Channel positions : Front: L C R, Side: L R, LFE
Sampling rate : 48.0 KHz
Bit depth : 24 bits
Compression mode : Lossy
Stream size : 963 MiB (14%)
Default : Yes
Forced : No

Subtitulos