63
PUNTOS
Calificar
CALIFICA
Calificar
Califica y/o escribe un comentario sobre la película.
Comentarios en el foroFORO

A Nightmare on Elm Street 3: Dream Warriors (1987)

Años después de los incidentes en El St. Nancy se ha convertido en una psiquiatra especializada en terapia del sueño, pero Freddy también sigue en activo, y comienza a parecerse en los sueños de varios de ellos. Nancy los reúne a todos en busca de una forma de parar al monstruo. Para ello, los pacientes aprenden a desarrollar habilidades especiales en su sueños. Alguno puede ser un mago, otro un superforzudo, un maestro en artes marciales...
Director Chuck Russell
Actores Heather Langenkamp, Robert Englund, Craig Wasson
Duración 96 min
País USA
Streaming (Servicio externo)
Grupo: UBM
Versión: DVDRip XviD INTERNAL
Tamaño: 700 MB
         ,   ,    .                   ,;,   ,;,
      .oo     oo.  `o.              ,;d888;888b;,
    d88'     '88b  88b       .    d88' `888' `88b
    888       888  888     ,oo,   888   ;8;   888
    888       888  888  ,dBBBBb,  888   `;'   888
    888       888  888 d8'   `8b  888         888
    888.     ,888  8;8'      d88  8;8         8;8
    888;.   .;888  888,     ,888  888   , ,   888
    `Y888bod888P'  `Y88;   ;88P'  `Y8;dO   0b;8P'
        'Ybod8P'      `Y8bod8P'     `Y8b     d8P'
                             '       `  
    ÚÄ¿ÚÄÄÄÄÄÄÄÄÄÄÄÄÄÄÄÄÄÄÄÄÄÄÄÄÄÄÄÄÄÄÄÄÄÄÄÄÄÄÄÄ¿ÚÄ¿
    ³ ³³ UBM PRESENTS:                          ³³ ³
    Àij٠A.Nightmare.On.Elm.Street.3            À³ÄÙ
    ÚijÄÄÄÄÄÄÄÄÄÄÄÄÄÄÄÄÄÄÄÄÄÄÄÄÄÄÄÄÄÄÄÄÄÄÄÄÄÄÄÄÄijĿ
    ³                                              ³
    ³ Movie Info                                   ³
    ³ Ripper: TEAM UbM                             ³
    ³ Supplier: TEAM UbM                           ³
    ³ Genre: Fantasy/Horror                        ³
    ³ Rating: 5.9/10 (6,831 votes)                 ³
    ³ Imdb: http://imdb.com/title/tt0093629/       ³
    ³ Runtime: 96 min                              ³
    ³                                              ³
    ³ Release Info                                 ³
    ³ Format: Xvid                                 ³
    ³ Source: Retail DVD                           ³
    ³ Resolution: 640x336                          ³
    ³ Audio Codec: mp3 vbr                         ³
    ³ Video Codec: Xvid                            ³
    ³ Audio Bitrate: 121                           ³
    ³ Video Bitrate: 885                           ³
    ³ Size: 49x15mb                                ³
    ³ Subs: english                                ³
    ³                                              ³
    ÀÄÄÄÄÄÄÄÄÄÄÄÄÄÄÄÄÄÄÄÄÄÄÄÄÄÄÄÄÄÄÄÄÄÄÄÄÄÄÄÄÄÄÄÄÄÄÙ
    ÚÄ¿ÚÄÄÄÄÄÄÄÄÄÄÄÄÄÄÄÄÄÄÄÄÄÄÄÄÄÄÄÄÄÄÄÄÄÄÄÄÄÄÄÄ¿ÚÄ¿
    Àij٠Notes                                  À³ÄÙ
    ÚijÄÄÄÄÄÄÄÄÄÄÄÄÄÄÄÄÄÄÄÄÄÄÄÄÄÄÄÄÄÄÄÄÄÄÄÄÄÄÄÄÄijĿ
    ³                                              ³
    ³   enjoy this classic horror movie! thanks to ³
    ³   WaYsTeD for letting me use their dvd's as  ³
    ³   source                                     ³
    ³                                              ³
    ÀÄÄÄÄÄÄÄÄÄÄÄÄÄÄÄÄÄÄÄÄÄÄÄÄÄÄÄÄÄÄÄÄÄÄÄÄÄÄÄÄÄÄÄÄÄÄÙ
    ÚÄ¿ÚÄÄÄÄÄÄÄÄÄÄÄÄÄÄÄÄÄÄÄÄÄÄÄÄÄÄÄÄÄÄÄÄÄÄÄÄÄÄÄÄ¿ÚÄ¿
    Àij٠Group news                             À³ÄÙ
    ÚijÄÄÄÄÄÄÄÄÄÄÄÄÄÄÄÄÄÄÄÄÄÄÄÄÄÄÄÄÄÄÄÄÄÄÄÄÄÄÄÄÄijĿ
    ³                                              ³
    ³  looking for new affil sites. want us        ³
    ³  find us.                                    ³
    ÀÄÄÄÄÄÄÄÄÄÄÄÄÄÄÄÄÄÄÄÄÄÄÄÄÄÄÄÄÄÄÄÄÄÄÄÄÄÄÄÄÄÄÄÄÄÄÙ
    ÚÄ¿ÚÄÄÄÄÄÄÄÄÄÄÄÄÄÄÄÄÄÄÄÄÄÄÄÄÄÄÄÄÄÄÄÄÄÄÄÄÄÄÄÄ¿ÚÄ¿
    Àij٠Contact                                À³ÄÙ
    ÚijÄÄÄÄÄÄÄÄÄÄÄÄÄÄÄÄÄÄÄÄÄÄÄÄÄÄÄÄÄÄÄÄÄÄÄÄÄÄÄÄÄijĿ
    ³                                              ³
    ³  mail: none                                  ³
    ³  irc: find us                                ³
    ÀÄÄÄÄÄÄÄÄÄÄÄÄÄÄÄÄÄÄÄÄÄÄÄÄÄÄÄÄÄÄÄÄÄÄÄÄÄÄÄÄÄÄÄÄÄÄÙ
    ÚÄ¿ÚÄÄÄÄÄÄÄÄÄÄÄÄÄÄÄÄÄÄÄÄÄÄÄÄÄÄÄÄÄÄÄÄÄÄÄÄÄÄÄÄ¿ÚÄ¿
    Àij٠Greetings, in no particular order      À³ÄÙ
    ÚijÄÄÄÄÄÄÄÄÄÄÄÄÄÄÄÄÄÄÄÄÄÄÄÄÄÄÄÄÄÄÄÄÄÄÄÄÄÄÄÄÄijĿ
    ³                                              ³
    ³   DNA, BELiAL, KoD, NOD, GORE, KlockreN, SiNK³
    ³   and those who deserve it                   ³
    ÀÄÄÄÄÄÄÄÄÄÄÄÄÄÄÄÄÄÄÄÄÄÄÄÄÄÄÄÄÄÄÄÄÄÄÄÄÄÄÄÄÄÄÄÄÄÄÙ

Subtitulos

Grupo: NewMov
Versión: DVDRip XviD
Tamaño: 700 MB
    --- File Information ---
    File Name:                                      A.Nightmare.on.Elm.Street.3.Dream.Warriors.1987.DVDRip.XviD-NewMov.avi
    File Size (in bytes):                           734,339,072

    --- Video Information ---
    Video Codec Type(e.g. "DIV3"):                  XVID
    Video Codec Name(e.g. "DivX 3, Low-Motion"):    XviD Dev ver. 25-Mar-03
    Duration (hh:mm:ss):                            1:36:32
    Frame Count:                                    138862
    Frame Width (pixels):                           640
    Frame Height (pixels):                          320
    Storage Aspect Ratio("SAR")"                    2.000
    Pixel Aspect Ratio ("PAR"):                     1.000
    Display Aspect Ratio ("DAR"):                   2.000
    Frames Per Second:                              23.976
    Pics Per Second:                                23.976
    Video Bitrate (kbps):                           894
    MPEG-4 ("MPEG-4" or ""):                        MPEG-4
    B-VOP ("B-VOP" or ""):                          B-VOP
    Quality Factor (bits/pixel)/frame:              0.182"

    --- Audio Information ---
    Audio Codec (e.g. "AC3"):                       0x0055 MPEG-1 Layer 3
    Audio Sample Rate (Hz):                         48000
    Audio Bitrate(kbps):                            107
    Audio Bitrate Type ("CBR" or "VBR"):            VBR
    Audio Channel Count (e.g. "2" for stereo):      2

Subtitulos

Grupo: PSYCHD
Versión: BDRip x264 1080p DTS
Tamaño: 6.6 GB
Format : Matroska
Format version : Version 2
File size : 6.55 GiB
Duration : 1h 36mn
Overall bit rate : 9 721 Kbps
Writing application : x264.exe
Writing library : mkv2rls v1.4 (date: 2011 mar 29)

Video
ID : 1
Format : AVC
Format/Info : Advanced Video Codec
Format profile : High@L4.1
Format settings, CABAC : Yes
Format settings, ReFrames : 4 frames
Codec ID : V_MPEG4/ISO/AVC
Duration : 1h 36mn
Bit rate : 8 216 Kbps
Width : 1 920 pixels
Height : 1 080 pixels
Display aspect ratio : 16:9
Frame rate mode : Constant
Frame rate : 23.976 fps
Color space : YUV
Chroma subsampling : 4:2:0
Bit depth : 8 bits
Scan type : Progressive
Bits/(Pixel*Frame) : 0.165
Stream size : 5.41 GiB (82%)
Writing library : x264 core 118 r2085 8a62835
Encoding settings : cabac=1 / ref=4 / deblock=1:0:0 / analyse=0x3:0x113 / me=umh / subme=8 / psy=1 / psy_rd=1.00:0.00 / mixed_ref=1 / me_range=16 / chroma_me=1 / trellis=1 / 8x8dct=1 / cqm=0 / deadzone=21,11 / fast_pskip=1 / chroma_qp_offset=-2 / threads=12 / sliced_threads=0 / nr=0 / decimate=1 / interlaced=0 / bluray_compat=0 / constrained_intra=0 / bframes=3 / b_pyramid=2 / b_adapt=2 / b_bias=0 / direct=3 / weightb=1 / open_gop=0 / weightp=2 / keyint=240 / keyint_min=24 / scenecut=40 / intra_refresh=0 / rc_lookahead=50 / rc=2pass / mbtree=1 / bitrate=8216 / ratetol=1.0 / qcomp=0.60 / qpmin=0 / qpmax=69 / qpstep=4 / cplxblur=20.0 / qblur=0.5 / ip_ratio=1.40 / aq=1:1.00
Language : English
Default : Yes
Forced : No

Audio
ID : 2
Format : DTS
Format/Info : Digital Theater Systems
Mode : 16
Format settings, Endianness : Big
Codec ID : A_DTS
Duration : 1h 36mn
Bit rate mode : Constant
Bit rate : 1 509 Kbps
Channel(s) : 6 channels
Channel positions : Front: L C R, Side: L R, LFE
Sampling rate : 48.0 KHz
Bit depth : 24 bits
Compression mode : Lossy
Stream size : 1.02 GiB (16%)
Language : English
Default : Yes
Forced : No

Text
ID : 3
Format : UTF-8
Codec ID : S_TEXT/UTF8
Codec ID/Info : UTF-8 Plain Text
Language : English
Default : No
Forced : No

Menu
00:00:00.000 : en:00:00:00.000
00:03:21.868 : en:00:03:21.868
00:04:12.127 : en:00:04:12.127
00:08:31.094 : en:00:08:31.094
00:09:31.613 : en:00:09:31.613
00:14:37.502 : en:00:14:37.502
00:18:49.879 : en:00:18:49.879
00:22:50.744 : en:00:22:50.744
00:25:53.927 : en:00:25:53.927
00:29:25.430 : en:00:29:25.430
00:32:41.710 : en:00:32:41.710
00:35:38.803 : en:00:35:38.803
00:38:42.570 : en:00:38:42.570
00:40:16.623 : en:00:40:16.623
00:42:05.523 : en:00:42:05.523
00:47:44.445 : en:00:47:44.445
00:50:46.043 : en:00:50:46.043
00:54:43.280 : en:00:54:43.280
00:59:10.922 : en:00:59:10.922
01:02:54.354 : en:01:02:54.354
01:06:19.392 : en:01:06:19.392
01:10:41.487 : en:01:10:41.487
01:12:51.492 : en:01:12:51.492
01:14:56.909 : en:01:14:56.909
01:16:50.981 : en:01:16:50.981
01:18:58.734 : en:01:18:58.734
01:21:10.866 : en:01:21:10.866
01:24:17.135 : en:01:24:17.135
01:26:37.401 : en:01:26:37.401
01:30:57.327 : en:01:30:57.327
01:32:32.297 : en:01:32:32.297

Subtitulos