53
PUNTOS
Calificar
CALIFICA
Calificar
Califica y/o escribe un comentario sobre la película.
Comentarios en el foroFORO

A Nightmare on Elm Street 4: The Dream Master (1988)

Freddy Krueger vuelve a la vida después de su aparente muerte en la entrega anterior y comienza a matar a los chicos que viven en Elm Street. Pero, Kristen, capaz de atraer a los demás dentro de sus sueños, le concede este poder especial a su amiga Alice. Sin embargo, ésta se da cuenta de que Freddy está sacando partido a este extraño poder...
Director Renny Harlin
Actores Robert Englund, Rodney Eastman, Lisa Wilcox
Duración 93 min
País USA
Streaming (Servicio externo)
Grupo: UBM
Versión: DVDRip XviD INTERNAL
Tamaño: 700 MB
     ,   ,    .                   ,;,   ,;,
  .oo     oo.  `o.              ,;d888;888b;,
 d88'     '88b  88b       .    d88' `888' `88b
 888       888  888     ,oo,   888   ;8;   888
 888       888  888  ,dBBBBb,  888   `;'   888
 888       888  888 d8'   `8b  888         888
 888.     ,888  8;8'      d88  8;8         8;8
 888;.   .;888  888,     ,888  888   , ,   888
 `Y888bod888P'  `Y88;   ;88P'  `Y8;dO   0b;8P'
    'Ybod8P'      `Y8bod8P'     `Y8b     d8P' 
                         '       `  
ÚÄ¿ÚÄÄÄÄÄÄÄÄÄÄÄÄÄÄÄÄÄÄÄÄÄÄÄÄÄÄÄÄÄÄÄÄÄÄÄÄÄÄÄÄ¿ÚÄ¿
³ ³³ UBM PRESENTS:                          ³³ ³
Àij٠A.Nightmare.on.Elm.Street.4            À³ÄÙ
ÚijÄÄÄÄÄÄÄÄÄÄÄÄÄÄÄÄÄÄÄÄÄÄÄÄÄÄÄÄÄÄÄÄÄÄÄÄÄÄÄÄÄijĿ
³                                              ³
³ Movie Info                                   ³
³ Ripper: TEAM UbM                             ³
³ Supplier: TEAM UbM                           ³
³ Genre: Fantasy/Horror                        ³
³ Rating: 5.3/10 (16,514 votes)                 ³
³ Imdb: http://imdb.com/title/tt0095742/       ³
³ Runtime: 99 min                              ³
³                                              ³
³ Release Info                                 ³
³ Format: Xvid                                 ³
³ Source: Retail DVD                           ³
³ Resolution: 640x336                          ³
³ Audio Codec: mp3 vbr                         ³
³ Video Codec: Xvid                            ³
³ Audio Bitrate: 121                           ³
³ Video Bitrate: 919                           ³
³ Size: 49x15mb                                ³
³ Subs: english                                ³
³                                              ³
ÀÄÄÄÄÄÄÄÄÄÄÄÄÄÄÄÄÄÄÄÄÄÄÄÄÄÄÄÄÄÄÄÄÄÄÄÄÄÄÄÄÄÄÄÄÄÄÙ

Subtitulos

Grupo: NewMov
Versión: DVDRip XviD
Tamaño: 700 MB
--- File Information ---
File Name:                                      A.Nightmare.on.Elm.Street.4.The.Dream.Master.1988.DVDRip.XviD-NewMov.avi
File Size (in bytes):                           734,322,688

--- Video Information ---
Video Codec Type(e.g. "DIV3"):                  XVID
Video Codec Name(e.g. "DivX 3, Low-Motion"):    XviD Dev ver. 25-Mar-03
Duration (hh:mm:ss):                            1:33:22
Frame Count:                                    134302
Frame Width (pixels):                           608
Frame Height (pixels):                          320
Storage Aspect Ratio("SAR")"                    1.900
Pixel Aspect Ratio ("PAR"):                     1.000
Display Aspect Ratio ("DAR"):                   1.900
Frames Per Second:                              23.976
Pics Per Second:                                23.976
Video Bitrate (kbps):                           910
MPEG-4 ("MPEG-4" or ""):                        MPEG-4
B-VOP ("B-VOP" or ""):                          B-VOP
Quality Factor (bits/pixel)/frame:              0.195"

--- Audio Information ---
Audio Codec (e.g. "AC3"):                       0x0055 MPEG-1 Layer 3
Audio Sample Rate (Hz):                         48000
Audio Bitrate(kbps):                            126
Audio Bitrate Type ("CBR" or "VBR"):            VBR
Audio Channel Count (e.g. "2" for stereo):      2

Subtitulos

Grupo: MOOVEE
Versión: BDRip x264 1080p DTS
Tamaño: 6.6 GB
Format : Matroska
Format version : Version 2
File size : 6.56 GiB
Duration : 1h 33mn
Overall bit rate : 10.1 Mbps
Encoded date : UTC 2011-11-03 11:27:39
Writing application : mkvmerge v4.9.1 ('Ich will') built on Jul 11 2011 23:53:15
Writing library : libebml v1.2.1 + libmatroska v1.1.1

Video
ID : 1
Format : AVC
Format/Info : Advanced Video Codec
Format profile : High@L4.1
Format settings, CABAC : Yes
Format settings, ReFrames : 4 frames
Muxing mode : Header stripping
Codec ID : V_MPEG4/ISO/AVC
Duration : 1h 33mn
Bit rate : 8 565 Kbps
Width : 1 920 pixels
Height : 1 080 pixels
Display aspect ratio : 16:9
Frame rate mode : Constant
Frame rate : 23.976 fps
Color space : YUV
Chroma subsampling : 4:2:0
Bit depth : 8 bits
Scan type : Progressive
Bits/(Pixel*Frame) : 0.172
Stream size : 5.44 GiB (83%)
Writing library : x264 core 119 r2106 07efeb4
Encoding settings : cabac=1 / ref=4 / deblock=1:0:0 / analyse=0x3:0x133 / me=umh / subme=8 / psy=1 / psy_rd=1.00:0.00 / mixed_ref=1 / me_range=16 / chroma_me=1 / trellis=1 / 8x8dct=1 / cqm=0 / deadzone=21,11 / fast_pskip=0 / chroma_qp_offset=-2 / threads=18 / sliced_threads=0 / nr=0 / decimate=1 / interlaced=0 / bluray_compat=0 / constrained_intra=0 / bframes=3 / b_pyramid=2 / b_adapt=1 / b_bias=0 / direct=1 / weightb=1 / open_gop=0 / weightp=2 / keyint=250 / keyint_min=23 / scenecut=40 / intra_refresh=0 / rc_lookahead=40 / rc=2pass / mbtree=1 / bitrate=8565 / ratetol=1.0 / qcomp=0.60 / qpmin=0 / qpmax=69 / qpstep=4 / cplxblur=20.0 / qblur=0.5 / ip_ratio=1.40 / aq=1:1.00
Language : English
Default : Yes
Forced : No

Audio
ID : 2
Format : DTS
Format/Info : Digital Theater Systems
Mode : 16
Format settings, Endianness : Big
Muxing mode : Header stripping
Codec ID : A_DTS
Duration : 1h 33mn
Bit rate mode : Constant
Bit rate : 1 509 Kbps
Channel(s) : 6 channels
Channel positions : Front: L C R, Side: L R, LFE
Sampling rate : 48.0 KHz
Bit depth : 24 bits
Compression mode : Lossy
Stream size : 1 006 MiB (15%)
Default : Yes
Forced : No

Subtitulos