61
PUNTOS
Calificar
CALIFICA
Calificar
Califica y/o escribe un comentario sobre la película.
Comentarios en el foroFORO

Mission: Impossible II (2000)

La nueva misión del agente especial Ethan Hunt consiste en impedir que un despiadado ex-agente que se ha convertido en terrorista internacional se apodere de un virus mortal y lo introduzca en Australia causando millones de víctimas. Para ello, cuenta de nuevo con la inestimable ayuda del genio informático Luther Stickell, con el experto conductor Billy Baird y con la sensual y exótica ladrona internacional Nhye, que mantuvo una relación sentimental con el terrorista, pero que ahora se siente atraída por Hunt.
Director John Woo
Actores Tom Cruise, Dougray Scott, Thandie Newton, Ving Rhames
Duración 123 min
Streaming (Servicio externo)
Grupo: RARBG
Versión: BDRip H.264 720p REMASTERED AAC
Tamaño: 1.4 GB
Mission.Impossible.II.2000.REMASTERED.720p.BluRay.H264.AAC-RARBG

Video
ID : 1
Format : AVC
Format/Info : Advanced Video Codec
Format profile : [email protected]
Format settings : CABAC / 4 Ref Frames
Format settings, CABAC : Yes
Format settings, ReFrames : 4 frames
Codec ID : avc1
Codec ID/Info : Advanced Video Coding
Duration : 2 h 3 min
Bit rate : 1 500 kb/s
Width : 1 280 pixels
Height : 544 pixels
Display aspect ratio : 2.35:1
Frame rate mode : Constant
Frame rate : 23.976 (23976/1000) FPS
Color space : YUV
Chroma subsampling : 4:2:0
Bit depth : 8 bits
Scan type : Progressive
Bits/(Pixel*Frame) : 0.090
Stream size : 1.29 GiB (87%)
Writing library : x264 core 152 r2851M ba24899
Encoding settings : cabac=1 / ref=4 / deblock=1:-1:-1 / analyse=0x3:0x113 / me=umh / subme=9 / psy=1 / psy_rd=1.00:0.15 / mixed_ref=1 / me_range=24 / chroma_me=1 / trellis=2 / 8x8dct=1 / cqm=0 / deadzone=21,11 / fast_pskip=1 / chroma_qp_offset=-3 / threads=32 / lookahead_threads=4 / sliced_threads=0 / nr=0 / decimate=1 / interlaced=0 / bluray_compat=0 / constrained_intra=0 / bframes=3 / b_pyramid=2 / b_adapt=2 / b_bias=0 / direct=3 / weightb=1 / open_gop=0 / weightp=2 / keyint=250 / keyint_min=25 / scenecut=40 / intra_refresh=0 / rc_lookahead=50 / rc=2pass / mbtree=1 / bitrate=1500 / ratetol=1.0 / qcomp=0.60 / qpmin=0 / qpmax=69 / qpstep=4 / cplxblur=20.0 / qblur=0.5 / vbv_maxrate=31250 / vbv_bufsize=31250 / nal_hrd=none / filler=0 / ip_ratio=1.40 / aq=3:1.00
Encoded date : UTC 2018-06-27 00:41:33
Tagged date : UTC 2018-06-27 00:41:33

Audio
ID : 2
Format : AAC
Format/Info : Advanced Audio Codec
Format profile : LC
Codec ID : mp4a-40-2
Duration : 2 h 3 min
Bit rate mode : Constant
Bit rate : 224 kb/s
Channel(s) : 2 channels
Channel(s)_Original : 6 channels
Channel positions : Front: L C R, Side: L R, LFE
Sampling rate : 48.0 kHz
Frame rate : 46.875 FPS (1024 SPF)
Compression mode : Lossy
Stream size : 198 MiB (13%)
Language : English
Default : Yes
Alternate group : 1
Encoded date : UTC 2018-06-27 00:41:33
Tagged date : UTC 2018-06-27 00:41:33

Subtitulos

Grupo: RARBG
Versión: BDRip H.264 1080p REMASTERED AAC
Tamaño: 2.3 GB
Mission.Impossible.II.2000.REMASTERED.1080p.BluRay.H264.AAC-RARBG

Video
ID : 1
Format : AVC
Format/Info : Advanced Video Codec
Format profile : [email protected]
Format settings : CABAC / 4 Ref Frames
Format settings, CABAC : Yes
Format settings, ReFrames : 4 frames
Codec ID : avc1
Codec ID/Info : Advanced Video Coding
Duration : 2 h 3 min
Bit rate : 2 500 kb/s
Width : 1 920 pixels
Height : 816 pixels
Display aspect ratio : 2.35:1
Frame rate mode : Constant
Frame rate : 23.976 (23976/1000) FPS
Color space : YUV
Chroma subsampling : 4:2:0
Bit depth : 8 bits
Scan type : Progressive
Bits/(Pixel*Frame) : 0.067
Stream size : 2.16 GiB (92%)
Writing library : x264 core 152 r2851M ba24899
Encoding settings : cabac=1 / ref=4 / deblock=1:-1:-1 / analyse=0x3:0x113 / me=umh / subme=9 / psy=1 / psy_rd=1.00:0.15 / mixed_ref=1 / me_range=24 / chroma_me=1 / trellis=2 / 8x8dct=1 / cqm=0 / deadzone=21,11 / fast_pskip=1 / chroma_qp_offset=-3 / threads=32 / lookahead_threads=4 / sliced_threads=0 / nr=0 / decimate=1 / interlaced=0 / bluray_compat=0 / constrained_intra=0 / bframes=3 / b_pyramid=2 / b_adapt=2 / b_bias=0 / direct=3 / weightb=1 / open_gop=0 / weightp=2 / keyint=250 / keyint_min=25 / scenecut=40 / intra_refresh=0 / rc_lookahead=50 / rc=2pass / mbtree=1 / bitrate=2500 / ratetol=1.0 / qcomp=0.60 / qpmin=0 / qpmax=69 / qpstep=4 / cplxblur=20.0 / qblur=0.5 / vbv_maxrate=31250 / vbv_bufsize=31250 / nal_hrd=none / filler=0 / ip_ratio=1.40 / aq=3:1.00
Encoded date : UTC 2018-06-27 01:27:15
Tagged date : UTC 2018-06-27 01:27:15

Audio
ID : 2
Format : AAC
Format/Info : Advanced Audio Codec
Format profile : LC
Codec ID : mp4a-40-2
Duration : 2 h 3 min
Bit rate mode : Constant
Bit rate : 224 kb/s
Channel(s) : 2 channels
Channel(s)_Original : 6 channels
Channel positions : Front: L C R, Side: L R, LFE
Sampling rate : 48.0 kHz
Frame rate : 46.875 FPS (1024 SPF)
Compression mode : Lossy
Stream size : 198 MiB (8%)
Language : English
Default : Yes
Alternate group : 1
Encoded date : UTC 2018-06-27 01:27:15
Tagged date : UTC 2018-06-27 01:27:15

Subtitulos

Grupo: IAMABLE
Versión: BDRip x265 2160p INTERNAL AC3 / Atmos
Tamaño: 31.9 GB
Mission.Impossible.II.2000.INTERNAL.2160p.UHD.BluRay.X265-IAMABLE

Date .....: 07/2018
Runtime ..: 02:03:36
Video ....: 3840x1636 (23.976fps @ CRF 19)
Audio ....: TrueHD (Atmos) 5.1 / AC-3 5.1 640kbps (Core)
Lang .....: English
Subs .....: English / French / Spanish / Portuguese / Italian / German / Dutch /
Nordic / Japanese
IMDB .....: https://www.imdb.com/title/tt0120755/
BOM
Genre ....: Action, Adventure, Thriller

Notes ....: To complete the other 4 we did.
SRTs added as usual for extra compatibility.

General note about UHD encodes:

Apparently some half-assed built-in TV players (confirmed for Samsung TVs),
do not like too many streams on the mkv.
If there are more than 20 elements (including video/audios/subs),
playback start glitching. If you have encountered issues, download mkvtoolnix,
load the mkv, uncheck the streams you have no need for, and make a new mkv.
Grupo: TERMiNAL
Versión: BDRip x265 2160p AC3 / Atmos
Tamaño: 33.3 GB
Mission.Impossible.II.2000.2160p.UHD.BluRay.x265-TERMiNAL

Size      : 33.3 GB (35,730,652,493 bytes)
IMDb      : https://www.imdb.com/title/tt0120755

\> show encode data
Duration  : 2 h 3 min
Video     : x265 3840x1636 (23.976 fps) @ 34.1 Mb/s (CRF 19)
Audio     : English Dolby TrueHD 5.1 @ 3490 kb/s
: English Dolby Digital 5.1 @ 640 kb/s
: Commentary Dolby Digital 2.0 @ 192 kb/s
Subtitles : English (SDH), English, Spanish, French, Danish, Dutch,
: Finnish, German, Italian, Norwegian, Swedish, Japanese,
: Portuguese
Trailer