76
PUNTOS
Calificar
CALIFICA
Calificar
Califica y/o escribe un comentario sobre la película.
Comentarios en el foroFORO

National Lampoon's Christmas Vacation (1989)

Clark Griswold, movido por un generoso y sentimental espíritu navideño, quiere sorprender a toda su familia con una gran fiesta. La suerte no suele acompañarlo y esta vez no va a ser diferente... Una sucesión de disparatados desastres convertirán la esperadísima sorpresa de Clark en un verdadero caos.
Director Jeremiah S. Chechik
Actores Chevy Chase, Beverly D'Angelo, Juliette Lewis
Duración 97 min
País USA
Streaming (Servicio externo)
Grupo: NoGRP
Versión: DVDRip H.264 AAC
Tamaño: 950 MB
General
Complete name                  : National Lampoon Christmas Vacation(DVD-MP4-H264-AAC-720){CTShoN}[CTRC].mp4
Format                         : MPEG-4
Format profile                 : Base Media / Version 2
Codec ID                       : mp42
File size                      : 926 MiB
Duration                       : 1h 37mn
Overall bit rate mode          : Variable
Overall bit rate               : 1 332 Kbps
Movie name                     : National Lampoon Christmas Vacation(MP4-H264-AAC-720p){CTShoN}[CTRC]
Album                          : NATIONAL_LAMPOONS_CHRISTMAS_VA
Encoded date                   : UTC 2016-01-10 22:12:17
Tagged date                    : UTC 2016-01-11 01:18:30
Writing application            : DVDFab 9.2.1.9
covr                           : Unknown kind of value!

Video
ID                             : 1
Format                         : AVC
Format/Info                    : Advanced Video Codec
Format profile                 : [email protected]L3.0
Format settings, CABAC         : Yes
Format settings, ReFrames      : 1 frame
Codec ID                       : avc1
Codec ID/Info                  : Advanced Video Coding
Duration                       : 1h 37mn
Bit rate                       : 1 194 Kbps
Width                          : 720 pixels
Height                         : 404 pixels
Display aspect ratio           : 16:9
Frame rate mode                : Constant
Frame rate                     : 23.976 fps
Color space                    : YUV
Chroma subsampling             : 4:2:0
Bit depth                      : 8 bits
Scan type                      : Progressive
Bits/(Pixel*Frame)             : 0.171
Stream size                    : 832 MiB (90%)
Writing library                : x264 core 142
Encoding settings              : cabac=1 / ref=1 / deblock=1:0:0 / analyse=0x1:0x111 / me=umh / subme=6 / psy=0 / mixed_ref=0 / me_range=12 / 

chroma_me=1 / trellis=0 / 8x8dct=0 / cqm=0 / deadzone=21,11 / fast_pskip=1 / chroma_qp_offset=0 / threads=2 / lookahead_threads=1 / sliced_threads=0 / 

nr=0 / decimate=1 / interlaced=0 / bluray_compat=0 / constrained_intra=0 / bframes=0 / weightp=0 / keyint=24 / keyint_min=13 / scenecut=40 / 

intra_refresh=0 / rc=abr / mbtree=0 / bitrate=1194 / ratetol=1.0 / qcomp=0.60 / qpmin=0 / qpmax=69 / qpstep=4 / ip_ratio=1.40 / aq=1:1.00
Encoded date                   : UTC 2016-01-10 22:12:17
Tagged date                    : UTC 2016-01-11 01:18:29
Color primaries                : BT.601 NTSC
Transfer characteristics       : BT.709
Matrix coefficients            : BT.601
Color range                    : Limited

Audio
ID                             : 2
Format                         : AAC
Format/Info                    : Advanced Audio Codec
Format profile                 : LC
Codec ID                       : 40
Duration                       : 1h 37mn
Bit rate mode                  : Variable
Bit rate                       : 128 Kbps
Maximum bit rate               : 133 Kbps
Channel(s)                     : 2 channels
Channel positions              : Front: L R
Sampling rate                  : 48.0 KHz
Compression mode               : Lossy
Stream size                    : 89.0 MiB (10%)
Title                          : English (aac 2.0)
Language                       : English
Encoded date                   : UTC 2016-01-10 22:12:17
Tagged date                    : UTC 2016-01-11 01:18:29

Text
ID                             : 3
Format                         : mp4s
Codec ID                       : E0
Duration                       : 1h 37mn
Bit rate mode                  : Variable
Bit rate                       : 2 175 bps
Maximum bit rate               : 4 186 Mbps
Stream size                    : 1.51 MiB (0%)
Language                       : English
Encoded date                   : UTC 2016-01-10 22:12:17
Tagged date                    : UTC 2016-01-11 01:18:23

Menu
ID                             : 4
Codec ID                       : text
Duration                       : 1h 37mn
Encoded date                   : UTC 2016-01-10 22:12:17
Tagged date                    : UTC 2016-01-11 01:18:30
Source duration                : 5832117
Source frame count             : 29
Source stream size             : 687
Frame count                    : 29
Stream size                    : 687
Bit rate mode                  : VBR

Subtitulos

Grupo: NoGRP
Versión: DVDRip DivX
Tamaño: 700 MB
File Name ..........: National.Lampoons.Christmas.Vacation.(1989).DVDRip.DivX3LM.avi
Total Size (Bytes) .: 734,494,720 Bytes
Total Size (KB) ....: 717,280 KB
Total Size (MB) ....: 700.47 MB
Total Streams ......: 2 Stream(s)
File Size Correct ..: Yes

Video Size (Bytes) .: 595,314,299 Bytes
Video Size (KB) ....: 581,362 KB
Video Size (MB) ....: 567.74 MB
Video Length .......: 01:36:39
Video Codec Code ...: DIV3
Video Codec Name ...: Low motion DivX MPEG-4
Video Bitrate ......: 821 KB/s
Resolution .........: 576 x 432
Aspect Ratio .......: 1.33:1
Total Frames .......: 139026 Frames
Framerate ..........: 23.976 FPS
Color Depth ........: 24 Bits
Quality Factor .....: 0.137 B/px
Packed Bitstream ...: No

Audio Size (Bytes) .: 139,170,201 Bytes
Audio Size (KB) ....: 135,908 KB
Audio Size (MB) ....: 132.72 MB
Audio Length .......: 01:36:38
Audio Codec Code ...: 85 (0x0055)
Audio Codec Name ...: MPEG-1 Layer 3 (MP3)
Audio Bitrate ......: 191 KB/s (VBR)
Channels ...........: 2 Ch
Sampling Rate ......: 48000 Hz
Grupo: TDF
Versión: DVDRip XviD INTERNAL
Tamaño: 700 MB
Codec: XviD
Runtime: 01:33:13
Resolution: 576x320
Aspect Ratio: 1.80:1
Video Bitrate: 911 kb/s
FPS: 25.000
Audio: 130 kb/s (65/ch, stereo) VBR LA MP3
Grupo: AMIABLE
Versión: BDRip x264 1080p REMASTERED DTS
Tamaño: 9.8 GB
Christmas.Vacation.1989.REMASTERED.1080p.BluRay.X264-AMIABLE

Date .....: November 2015
Runtime ..: 01:37:04
Video ....: 1920x1080 (X264 @ 23.976fps)
Audio ....: DTS 1509K
Source ...: Retail Blu-Ray
Lang .....: English  
Subs .....: English / French / Spanish / Nordic
IMDB .....: http://www.imdb.com/title/tt0097958/
Rating ...: 7.6/10   97,244 votes
Genre ....: Comedy  

Notes ....: New new interpositive scanned at 2k.
mastered with an average rate of 32.87 Mbps 
(18.51 Mbps for the earlier disc). 
Also encoded with superior AVC (VC-1 on old).
Couldn't find any exact compares, but it seems 
much better overall.
For more info read here:
http://www.blu-ray.com/movies/National-Lampoons-Christmas-Vacation-Blu-ray/137750/#Review
For comparisons:
http://caps-a-holic.com/c.php?d1=6845&d2=1016