75
PUNTOS
Calificar
CALIFICA
Calificar
Califica y/o escribe un comentario sobre la película.
Comentarios en el foroFORO

Sleepy Hollow (1999)

Norteamérica, finales del siglo XVIII. Constable Ichabod Crane (Johnny Depp), un policía de Nueva York que utiliza avanzados métodos de investigación, es enviado al pequeño y remoto pueblo de Sleepy Hollow para descubrir qué hay de verdad en la leyenda de un jinete sin cabeza que aterroriza a los habitantes del lugar.
Director Tim Burton
Actores Johnny Depp, Christina Ricci, Miranda Richardson
Duración 105 min
País USA | Germany
Streaming (Servicio externo)
Grupo: YIFY
Versión: BDRip x264 720p AAC
Tamaño: 750 MB
Sleepy.Hollow.1999.720p.BrRip.x264.YIFY

General
Complete name                  : Sleepy.Hollow.1999.720p.BrRip.x264.YIFY.mp4
Format                         : MPEG-4
Format profile                 : Base Media
Codec ID                       : isom
File size                      : 751 MiB
Duration                       : 1h 45mn
Overall bit rate mode          : Variable
Overall bit rate               : 995 Kbps
Encoded date                   : UTC 2012-06-16 16:22:14
Tagged date                    : UTC 2012-06-16 16:22:14

Video
ID                             : 1
Format                         : AVC
Format/Info                    : Advanced Video Codec
Format profile                 : [email protected]
Format settings, CABAC         : Yes
Format settings, ReFrames      : 8 frames
Codec ID                       : avc1
Codec ID/Info                  : Advanced Video Coding
Duration                       : 1h 45mn
Bit rate                       : 900 Kbps
Maximum bit rate               : 6 267 Kbps
Width                          : 1 280 pixels
Height                         : 720 pixels
Display aspect ratio           : 16:9
Frame rate mode                : Constant
Frame rate                     : 23.976 fps
Color space                    : YUV
Chroma subsampling             : 4:2:0
Bit depth                      : 8 bits
Scan type                      : Progressive
Bits/(Pixel*Frame)             : 0.041
Stream size                    : 679 MiB (90%)
Writing library                : x264 core 120 r2164 da19765
Encoding settings              : cabac=1 / ref=8 / deblock=1:-2:-1 / analyse=0x3:0x133 / me=umh / subme=9 / psy=1 / psy_rd=1.00:0.00 / mixed_ref=1 / me_range=16 / chroma_me=1 / trellis=2 / 8x8dct=1 / cqm=0 / deadzone=21,11 / fast_pskip=1 / chroma_qp_offset=-2 / threads=12 / sliced_threads=0 / nr=0 / decimate=1 / interlaced=0 / bluray_compat=0 / constrained_intra=0 / bframes=6 / b_pyramid=2 / b_adapt=2 / b_bias=0 / direct=3 / weightb=1 / open_gop=0 / weightp=2 / keyint=240 / keyint_min=23 / scenecut=40 / intra_refresh=0 / rc_lookahead=60 / rc=2pass / mbtree=1 / bitrate=900 / ratetol=1.0 / qcomp=0.60 / qpmin=10 / qpmax=51 / qpstep=4 / cplxblur=20.0 / qblur=0.5 / ip_ratio=1.40 / aq=1:1.00
Encoded date                   : UTC 2012-06-16 16:22:14
Tagged date                    : UTC 2012-06-16 16:26:38

Audio
ID                             : 2
Format                         : AAC
Format/Info                    : Advanced Audio Codec
Format profile                 : LC
Codec ID                       : 40
Duration                       : 1h 45mn
Bit rate mode                  : Variable
Bit rate                       : 92.0 Kbps
Maximum bit rate               : 102 Kbps
Channel(s)                     : 2 channels
Channel positions              : Front: L R
Sampling rate                  : 48.0 KHz
Compression mode               : Lossy
Stream size                    : 69.4 MiB (9%)
Encoded date                   : UTC 2012-06-16 16:26:35
Tagged date                    : UTC 2012-06-16 16:26:38

Subtitulos

Grupo: YIFY
Versión: BDRip x264 1080p AAC
Tamaño: 1.6 GB
Sleepy.Hollow.1999.1080p.BrRip.x264.YIFY

General
Complete name                  : Sleepy.Hollow.1999.1080p.BrRip.x264.YIFY.mp4
Format                         : MPEG-4
Format profile                 : Base Media
Codec ID                       : isom
File size                      : 1.55 GiB
Duration                       : 1h 45mn
Overall bit rate mode          : Variable
Overall bit rate               : 2 109 Kbps
Encoded date                   : UTC 2012-06-16 05:38:03
Tagged date                    : UTC 2012-06-16 05:38:03

Video
ID                             : 1
Format                         : AVC
Format/Info                    : Advanced Video Codec
Format profile                 : [email protected]
Format settings, CABAC         : Yes
Format settings, ReFrames      : 4 frames
Codec ID                       : avc1
Codec ID/Info                  : Advanced Video Coding
Duration                       : 1h 45mn
Bit rate                       : 2 014 Kbps
Maximum bit rate               : 10.8 Mbps
Width                          : 1 920 pixels
Height                         : 1 072 pixels
Display aspect ratio           : 16:9
Frame rate mode                : Constant
Frame rate                     : 23.976 fps
Color space                    : YUV
Chroma subsampling             : 4:2:0
Bit depth                      : 8 bits
Scan type                      : Progressive
Bits/(Pixel*Frame)             : 0.041
Stream size                    : 1.48 GiB (95%)
Encoded date                   : UTC 2012-06-16 05:38:03
Tagged date                    : UTC 2012-06-16 05:45:17

Audio
ID                             : 2
Format                         : AAC
Format/Info                    : Advanced Audio Codec
Format profile                 : LC
Codec ID                       : 40
Duration                       : 1h 45mn
Bit rate mode                  : Variable
Bit rate                       : 20.3 Kbps
Nominal bit rate               : 92.0 Kbps
Maximum bit rate               : 102 Kbps
Channel(s)                     : 2 channels
Channel positions              : Front: L R
Sampling rate                  : 48.0 KHz
Compression mode               : Lossy
Stream size                    : 15.3 MiB (1%)
Encoded date                   : UTC 2012-06-16 05:45:15
Tagged date                    : UTC 2012-06-16 05:45:17

Subtitulos

Grupo: DeFiCaToR
Versión: DVDRip DivX AC3
Tamaño: 1.4 GB
File Name .......: Sleepy.Hollow.1999.DVDRip.AC3.DivX5-DeFiCaToR.CD1.avi
File Size .......: 697,44 MB

Duration ........: 00:55:05
Video Codec .....: DivX 5.0 codec
Video Bitrate ...: 1322 KB/s
Resolution ......: 672 x 368
Aspect Ratio ....: 1.82:1
Framerate .......: 23,976 FPS

Audio Codec .....: FAST Multimedia AG DVM (Dolby AC3)
Audio Bitrate ...: 448 KB/s (CBR)
Channels ........: 5 Ch

File Name .......: Sleepy.Hollow.1999.DVDRip.AC3.DivX5-DeFiCaToR.CD2.avi
File Size .......: 695,45 MB

Duration ........: 00:48:51
Video Codec .....: DivX 5.0 codec
Video Bitrate ...: 1542 KB/s
Resolution ......: 672 x 368
Aspect Ratio ....: 1.82:1
Framerate .......: 23,976 FPS

Audio Codec .....: FAST Multimedia AG DVM (Dolby AC3)
Audio Bitrate ...: 448 KB/s (CBR)
Channels ........: 5 Ch
Grupo: SEPTiC
Versión: HDDVD x264 720p AC3
Tamaño: 4.37 GB
General
Complete name: Sleepy.Hollow.1999.720p.HDDVD.x264-SEPTiC.mkv
Format: Matroska
File size: 4.37 GiB
PlayTime: 1h 45mn
Bitrate: 5928 Kbps
Encoded date: UTC 2007-05-20 00:37:06
Writing application: mkvmerge v2.0.2 ('You're My Flame') built on Mar  5 2007 12:54:12
Writing library: libebml v0.7.7 + libmatroska v0.8.1

Video
Codec: MPEG-4 AVC
Codec/Info: MPEG4 ISO advanced profile
PlayTime: 1h 45mn
Width: 1280 pixels
Height: 720 pixels
Aspect ratio: 16/9
Frame rate: 23.976 fps
Language: English

Audio
Codec: AC3
Codec/Info: Dolby AC3
Bitrate: 640 Kbps
Channel(s): 6 channels
Sampling rate: 48 KHz