75
PUNTOS
Calificar
CALIFICA
Calificar
Califica y/o escribe un comentario sobre la pelĂ­cula.
Comentarios en el foroFORO

Zero Dark Thirty (2012)

Thriller sobre la operación militar que acabó con la vida de Osama Bin Laden, líder de Al Quaeda. El título original, Zero Dark Thirty hace referencia a la hora: las 00:30 de la madrugada del 1 de mayo de 2011, momento en que el comando SEAL de los marines penetró en la residencia de Bin Laden en Pakistán para eliminar al hombre más buscado de la historia
Director Kathryn Bigelow
Actores Jessica Chastain, Joel Edgerton, Chris Pratt
Duración 157 min
País USA
Streaming (Servicio externo)
Grupo: ADTRG
Versión: DVDScr XviD AC3
Tamaño: 2.34 GB
Format : AVI
Format/Info : Audio Video Interleave
Format profile : OpenDML
File size : 2.34 GiB
Duration : 2h 36mn
Overall bit rate : 2 138 Kbps
Writing application : VirtualDubMod 1.5.10.2 (build 2540/release)
Writing library : VirtualDubMod build 2540/release

Video
ID : 0
Format : MPEG-4 Visual
Format profile : Advanced Simple@L5
Format settings, BVOP : 2
Format settings, QPel : No
Format settings, GMC : No warppoints
Format settings, Matrix : Default (H.263)
Muxing mode : Packed bitstream
Codec ID : XVID
Codec ID/Hint : XviD
Duration : 2h 36mn
Bit rate : 1 676 Kbps
Width : 720 pixels
Height : 384 pixels
Display aspect ratio : 1.875
Frame rate : 29.970 fps
Color space : YUV
Chroma subsampling : 4:2:0
Bit depth : 8 bits
Scan type : Progressive
Compression mode : Lossy
Bits/(Pixel*Frame) : 0.202
Stream size : 1.84 GiB (78%)
Writing library : XviD 64

Audio
ID : 1
Format : AC-3
Format/Info : Audio Coding 3
Mode extension : CM (complete main)
Codec ID : 2000
Duration : 2h 36mn
Bit rate mode : Constant
Bit rate : 448 Kbps
Channel(s) : 2 channels
Channel positions : Front: L R
Sampling rate : 48.0 KHz
Bit depth : 16 bits
Compression mode : Lossy
Stream size : 503 MiB (21%)
Alignment : Split accross interleaves
Interleave, duration : 33 ms (1.00 video frame)
Interleave, preload duration : 500 ms

Subtitulos

Grupo: DEPRiVED
Versión: DVDRip XviD AC3
Tamaño: 1.4 GB
Release Name: Zero.Dark.Thirty.2012.DVDRip.XVID-DEPRiVED
Format: AVI
Size: 1.37 GiB
Video: XviD | 624 x 336 | 773 Kbps | 23.976 FPS | 1.85:1
Audio: English | 448 Kbps | 6 ch | AC-3
Runtime: 2h 36mn
Subtitles: Spanish | English | French
Source: Region 1 DVD9

Subtitulos

Grupo: Felony
Versión: BDRip x264 720p DTS
Tamaño: 6.56 GB
Name/Year..: Zero Dark Thirty (2012)  
Theatre....: 21 December 2012 (USA)
Release....: 28/02/2013
Source.....: R1 1080p BluRay
	
Length.....: 127 minutes
Video......: 1280 x 688 
Audio......: DTS 1509 kbps 
Subtitles..: En/En Forced

Subtitulos

Grupo: SECTOR7
Versión: BDRip x264 1080p DTS
Tamaño: 11 GB
Date.............: 02/28/2013
Source...........: 1080P BluRay
Video............: 1920*1040
Audio............: DTS 1509 kbps
Subs.............: English English Forced

Subtitulos

Grupo: IAMABLE
Versión: BDRip x265 2160p AC3 / Atmos
Tamaño: 33.8 GB
Zero.Dark.Thirty.2012.2160p.UHD.BluRay.X265-IAMABLE

Date .....: 01/2018
Runtime ..: 02:36:59
Video ....: 3840x2076 (23.976fps @ CRF 17)
Audio ....: TrueHD (Atmos) 7.1 / AC-3 EX 5.1 640kbps (core)
Lang .....: English
Subs .....: English
IMDB .....: http://www.imdb.com/title/tt1790885/
BOM
Rating ...: 7.4/10   234,507 votes
Genre ....: Drama, Thriller
Trailer