75
PUNTOS
Calificar
CALIFICA
Calificar
Califica y/o escribe un comentario sobre la película.
Comentarios en el foroFORO

Twenty Feet from Stardom (2013)

Oscar a Mejor Documental 2011. "20 Feet from Stardom", en alusión a que se encuentran en el escenario muy cerca de los cantantes famosos, es un poema a las coristas del pop y el soul. La cara femenina de "Standing In The Shadows of Motown". Eran las de la parte trasera del escenario, a seis metros del estrellato. Bruce Springsteen, Stevie Wonder o Mick Jagger miran al coro y piden más. Los cantantes "de recambio" viven en un mundo que se encuentra más allá del punto de mira. Sus voces traen armonía a las bandas más grandes de la música popular, pero no hemos tenido ni idea de lo que estos cantantes son o qué rumbo toman sus vidas - hasta ahora.
Director Morgan Neville
Actores Darlene Love, Merry Clayton, Lisa Fischer
Duración 91 min
País USA
Streaming (Servicio externo)
Grupo: PLAYNOW
Versión: HDRip x264 AC3
Tamaño: 1.4 GB
Format                                   : Matroska
Format version                           : Version 4 / Version 2
File size                                : 1.37 GiB
Duration                                 : 1h 30mn
Overall bit rate                         : 2 169 Kbps
Encoded date                             : UTC 2013-12-18 09:29:57
Writing application                      : mkvmerge v6.5.0 ('Isn't she lovely') built on Oct 20 2013 12:50:05
Writing library                          : libebml v1.3.0 + libmatroska v1.4.1

Video
ID                                       : 1
Format                                   : AVC
Format/Info                              : Advanced Video Codec
Format profile                           : [email protected]
Format settings, CABAC                   : Yes
Format settings, ReFrames                : 4 frames
Codec ID                                 : V_MPEG4/ISO/AVC
Duration                                 : 1h 30mn
Bit rate                                 : 1 792 Kbps
Width                                    : 720 pixels
Height                                   : 404 pixels
Display aspect ratio                     : 16:9
Frame rate mode                          : Constant
Frame rate                               : 23.976 fps
Color space                              : YUV
Chroma subsampling                       : 4:2:0
Bit depth                                : 8 bits
Scan type                                : Progressive
Bits/(Pixel*Frame)                       : 0.257
Stream size                              : 1.10 GiB (80%)
Writing library                          : x264 core 130 r2273 b3065e6
Default                                  : Yes
Forced                                   : No
Color primaries                          : BT.709
Transfer characteristics                 : BT.709
Matrix coefficients                      : BT.709

Audio
ID                                       : 2
Format                                   : AC-3
Format/Info                              : Audio Coding 3
Mode extension                           : CM (complete main)
Format settings, Endianness              : Big
Codec ID                                 : A_AC3
Duration                                 : 1h 30mn
Bit rate mode                            : Constant
Bit rate                                 : 384 Kbps
Channel(s)                               : 6 channels
Channel positions                        : Front: L C R, Side: L R, LFE
Sampling rate                            : 48.0 KHz
Bit depth                                : 16 bits
Compression mode                         : Lossy
Stream size                              : 249 MiB (18%)
Default                                  : Yes
Forced                                   : No

Subtitulos

Trailer