81
PUNTOS
Calificar
CALIFICA
Calificar
Califica y/o escribe un comentario sobre la película.
Comentarios en el foroFORO

Ah-ga-ssi (2016)

Corea, década de 1930, durante la colonización japonesa. Una joven, Sookee, es contratada como criada de una rica mujer japonesa, Hideko, que vive recluida en una gran mansión bajo la influencia de un tirano. Sookee guarda un secreto, y con la ayuda de un estafador que se hace pasar por un conde japonés, planea algo para Hideko.
Director Chan-wook Park
Actores Min-hee Kim, Jung-woo Ha, Jin-woong Jo
Duración 144 min
País South Korea
Streaming (Servicio externo)
Grupo: HORiZON-ArtSubs
Versión: BRRip x264 720p AC3
Tamaño: 1.8 GB
The.Handmaiden.2016.720p.BRRip.x264.AC3.HORiZON-ArtSubs

General
Unique ID                      : 75343711296335161689898617758949223843 (0x38AEABC4BC28FD68A7C6561D6CCAADA3)
Complete name                  : The.Handmaiden.2016.720p.BRRip.x264.AC3.HORiZON-ArtSubs.mkv
Format                         : Matroska
Format version                 : Version 2
File size                      : 1.85 GiB
Duration                       : 2h 19mn
Overall bit rate               : 1 904 Kbps
Writing application            : HandBrake 0.9.5
Writing library                : libmkv 0.6.4.1

Video
ID                             : 1
Format                         : AVC
Format/Info                    : Advanced Video Codec
Format profile                 : [email protected]
Format settings, CABAC         : Yes
Format settings, ReFrames      : 4 frames
Codec ID                       : V_MPEG4/ISO/AVC
Duration                       : 2h 19mn
Bit rate                       : 1 266 Kbps
Width                          : 1 280 pixels
Height                         : 528 pixels
Display aspect ratio           : 2.40:1
Original display aspect ratio  : 2.40:1
Frame rate mode                : Constant
Frame rate                     : 25.000 fps
Color space                    : YUV
Chroma subsampling             : 4:2:0
Bit depth                      : 8 bits
Scan type                      : Progressive
Bits/(Pixel*Frame)             : 0.075
Stream size                    : 1.19 GiB (64%)
Writing library                : x264 core 112
Encoding settings              : cabac=1 / ref=3 / deblock=1:0:0 / analyse=0x3:0x113 / me=hex / subme=7 / psy=1 / psy_rd=1.00:0.00 / mixed_ref=1 / me_range=16 / chroma_me=1 / trellis=1 / 8x8dct=1 / cqm=0 / deadzone=21,11 / fast_pskip=1 / chroma_qp_offset=-2 / threads=6 / sliced_threads=0 / nr=0 / decimate=1 / interlaced=0 / constrained_intra=0 / bframes=3 / b_pyramid=2 / b_adapt=2 / b_bias=0 / direct=1 / weightb=1 / open_gop=0 / weightp=2 / keyint=250 / keyint_min=25 / scenecut=40 / intra_refresh=0 / rc_lookahead=50 / rc=abr / mbtree=1 / bitrate=1266 / ratetol=1.0 / qcomp=0.60 / qpmin=3 / qpmax=51 / qpstep=4 / ip_ratio=1.40 / aq=1:1.00
Language                       : English
Default                        : Yes
Forced                         : No
Color primaries                : BT.709
Transfer characteristics       : BT.709
Matrix coefficients            : BT.709
Color range                    : Limited

Audio
ID                             : 2
Format                         : AC-3
Format/Info                    : Audio Coding 3
Mode extension                 : CM (complete main)
Format settings, Endianness    : Big
Codec ID                       : A_AC3
Duration                       : 2h 19mn
Bit rate mode                  : Constant
Bit rate                       : 640 Kbps
Channel(s)                     : 6 channels
Channel positions              : Front: L C R, Side: L R, LFE
Sampling rate                  : 48.0 KHz
Bit depth                      : 16 bits
Compression mode               : Lossy
Stream size                    : 637 MiB (34%)
Language                       : Korean
Default                        : Yes
Forced                         : No

Text
ID                             : 3
Format                         : UTF-8
Codec ID                       : S_TEXT/UTF8
Codec ID/Info                  : UTF-8 Plain Text
Language                       : English
Default                        : No
Forced                         : No

Menu
00:00:00.000                   : Chapter 1
00:12:47.480                   : Chapter 2
00:22:59.560                   : Chapter 3
00:33:29.360                   : Chapter 4
00:46:05.960                   : Chapter 5
00:57:54.680                   : Chapter 6
01:10:06.120                   : Chapter 7
01:22:14.520                   : Chapter 8
01:30:13.920                   : Chapter 9
01:44:47.280                   : Chapter 10
01:53:39.240                   : Chapter 11
02:05:33.080                   : Chapter 12

Subtitulos

Grupo: PSYCHD
Versión: BDRip x264 AAC
Tamaño: 625 MB
The.Handmaiden.2016.BDRip.x264-PSYCHD

Date..............: 02/2017
IMDB..............: http://www.imdb.com/title/tt4016934/
Ratings...........: 8.1/10   22,051 votes
Runtime...........: 2:25:06
Video.............: 720x302 / 23.976fps
CRF...............: 19

Subtitulos

Grupo: PSYCHD
Versión: BDRip x264 1080p DTS
Tamaño: 9.8 GB
The.Handmaiden.2016.1080p.BluRay.x264-PSYCHD

Date..............: 02/2017
IMDB..............: http://www.imdb.com/title/tt4016934/
Ratings...........: 8.1/10   22,051 votes
Runtime...........: 2:25:06
Video.............: 1920x808 / 23.976fps
Audio.............: Korean & Japanese DTS 5.1 1509Kbps

Subtitulos

Grupo: WiKi
Versión: BDRip x264 720p DTS
Tamaño: 5.5 GB
The.Handmaiden.2016.720p.BluRay.x264-WiKi

Video
ID                                       : 1
Format                                   : AVC
Format/Info                              : Advanced Video Codec
Format profile                           : [email protected]
Format settings, CABAC                   : Yes
Format settings, ReFrames                : 12 frames
Codec ID                                 : V_MPEG4/ISO/AVC
Duration                                 : 2h 19mn
Bit rate                                 : 4 980 Kbps
Width                                    : 1 280 pixels
Height                                   : 536 pixels
Display aspect ratio                     : 2.40:1
Frame rate mode                          : Constant
Frame rate                               : 25.000 fps
Color space                              : YUV
Chroma subsampling                       : 4:2:0
Bit depth                                : 8 bits
Scan type                                : Progressive
Bits/(Pixel*Frame)                       : 0.290
Stream size                              : 4.83 GiB (89%)
Writing library                          : x264 core 129 r2245+704+36 8e61944 tMod+MixAQ [[email protected]:2:0 X86_64]
Encoding settings                        : cabac=1 / ref=12 / deblock=1:-3:-3 / analyse=0x3:0x133 / me=umh / subme=11 / psy=1 / fade_compensate=0.00 / psy_rd=1.05:0.10 / mixed_ref=1 / me_range=32 / chroma_me=1 / trellis=2 / 8x8dct=1 / cqm=0 / deadzone=21,11 / fast_pskip=0 / chroma_qp_offset=-3 / threads=18 / lookahead_threads=3 / sliced_threads=0 / nr=0 / decimate=0 / interlaced=0 / bluray_compat=0 / constrained_intra=0 / fgo=0 / bframes=10 / b_pyramid=2 / b_adapt=2 / b_bias=0 / direct=3 / weightb=1 / open_gop=0 / weightp=2 / keyint=250 / keyint_min=25 / scenecut=40 / intra_refresh=0 / rc_lookahead=80 / rc=2pass / mbtree=1 / bitrate=4980 / ratetol=1.0 / qcomp=0.70 / qpmin=0 / qpmax=69 / qpstep=4 / cplxblur=20.0 / qblur=0.5 / ip_ratio=1.40 / aq=1 / aq-strength=0.85 / aq-sensitivity=10.00 / aq-ifactor=1.00 / aq-pfactor=1.00 / aq-bfactor=1.00 / aq2=0
Language                                 : Korean
Default                                  : Yes
Forced                                   : No
Color range                              : Limited
Matrix coefficients                      : BT.709

Audio
ID                                       : 2
Format                                   : AC-3
Format/Info                              : Audio Coding 3
Mode extension                           : CM (complete main)
Format settings, Endianness              : Big
Codec ID                                 : A_AC3
Duration                                 : 2h 19mn
Bit rate mode                            : Constant
Bit rate                                 : 640 Kbps
Channel(s)                               : 6 channels
Channel positions                        : Front: L C R, Side: L R, LFE
Sampling rate                            : 48.0 KHz
Frame rate                               : 31.250 fps (1536 spf)
Compression mode                         : Lossy
Stream size                              : 637 MiB (11%)
Language                                 : Korean
Default                                  : Yes
Forced                                   : No

Text #1
ID                                       : 3
Format                                   : UTF-8
Codec ID                                 : S_TEXT/UTF8
Codec ID/Info                            : UTF-8 Plain Text
Duration                                 : 2h 17mn
Bit rate                                 : 37 bps
Count of elements                        : 1256
Stream size                              : 37.7 KiB (0%)
Title                                    : Simplified
Language                                 : Chinese
Default                                  : Yes
Forced                                   : No

Text #2
ID                                       : 4
Format                                   : UTF-8
Codec ID                                 : S_TEXT/UTF8
Codec ID/Info                            : UTF-8 Plain Text
Duration                                 : 2h 17mn
Bit rate                                 : 37 bps
Count of elements                        : 1256
Stream size                              : 37.7 KiB (0%)
Title                                    : Traditional
Language                                 : Chinese
Default                                  : No
Forced                                   : No

Menu
00:00:00.000                             : en:00:00:00.000
00:12:47.319                             : en:00:12:47.319
00:22:59.560                             : en:00:22:59.560
00:33:29.360                             : en:00:33:29.360
00:46:05.960                             : en:00:46:05.960
00:57:54.640                             : en:00:57:54.640
01:10:06.120                             : en:01:10:06.120
01:22:14.520                             : en:01:22:14.520
01:30:13.840                             : en:01:30:13.840
01:44:47.280                             : en:01:44:47.280
01:53:39.240                             : en:01:53:39.240
02:05:33.080                             : en:02:05:33.080

Subtitulos

Grupo: WiKi
Versión: BDRip x264 1080p DTS
Tamaño: 14.1 GB
The.Handmaiden.2016.1080p.BluRay.x264-WiKi

General
Unique ID : 208590980923858351928824258606571760864 (0x9CED296085420FE7B414EB3001A4ACE0)
Complete name : The.Handmaiden.2016.1080p.BluRay.x264.DTS-WiKi.mkv
Format : Matroska
Format version : Version 2
File size : 14.1 GiB
Duration : 2h 19mn
Overall bit rate : 14.5 Mbps
Encoded date : UTC 2016-10-28 12:56:59
Writing application : mkvmerge v5.8.0 ('No Sleep / Pillow') built on Sep 2 2012 15:37:04
Writing library : libebml v1.2.3 + libmatroska v1.3.0

Video
ID : 1
Format : AVC
Format/Info : Advanced Video Codec
Format profile : [email protected]
Format settings, CABAC : Yes
Format settings, ReFrames : 5 frames
Codec ID : V_MPEG4/ISO/AVC
Duration : 2h 19mn
Bit rate : 13.0 Mbps
Width : 1 920 pixels
Height : 804 pixels
Display aspect ratio : 2.40:1
Frame rate : 25.000 fps
Color space : YUV
Chroma subsampling : 4:2:0
Bit depth : 8 bits
Scan type : Progressive
Bits/(Pixel*Frame) : 0.337
Stream size : 12.3 GiB (88%)
Writing library : x264 core 142 r2431+42 c69a006 tMod [[email protected] X86_64]
Encoding settings : cabac=1 / ref=5 / deblock=1:-3:-3 / analyse=0x3:0x133 / me=umh / subme=11 / psy=1 / fade_compensate=0.00 / psy_rd=1.10:0.10 / mixed_ref=1 / me_range=64 / chroma_me=1 / trellis=2 / 8x8dct=1 / cqm=0 / deadzone=21,11 / fast_pskip=0 / chroma_qp_offset=-1 / threads=12 / lookahead_threads=3 / sliced_threads=0 / nr=0 / decimate=0 / interlaced=0 / bluray_compat=0 / constrained_intra=0 / fgo=0 / bframes=10 / b_pyramid=2 / b_adapt=2 / b_bias=0 / direct=3 / weightb=1 / open_gop=0 / weightp=2 / keyint=250 / keyint_min=25 / scenecut=40 / intra_refresh=0 / rc_lookahead=120 / rc=2pass / mbtree=0 / bitrate=13000 / ratetol=1.0 / qcomp=0.70 / qpmin=0:0:0 / qpmax=69:69:69 / qpstep=4 / cplxblur=20.0 / qblur=0.5 / vbv_maxrate=50000 / vbv_bufsize=50000 / nal_hrd=none / filler=0 / ip_ratio=1.40 / pb_ratio=1.30 / aq=1:0.70 / aq-sensitivity=10.00 / aq-factor=1.00:1.00:1.00 / aq2=0 / aq3=0
Language : Korean
Default : Yes
Forced : No

Audio
ID : 2
Format : DTS
Format/Info : Digital Theater Systems
Codec ID : A_DTS
Duration : 2h 19mn
Bit rate mode : Constant
Bit rate : 1 510 Kbps
Channel(s) : 6 channels
Channel positions : Front: L C R, Side: L R, LFE
Sampling rate : 48.0 KHz
Bit depth : 16 bits
Compression mode : Lossy
Stream size : 1.47 GiB (10%)
Language : Korean
Default : Yes
Forced : No

Text #1
ID : 3
Format : UTF-8
Codec ID : S_TEXT/UTF8
Codec ID/Info : UTF-8 Plain Text
Title : CHS
Language : Chinese
Default : No
Forced : No

Text #2
ID : 4
Format : UTF-8
Codec ID : S_TEXT/UTF8
Codec ID/Info : UTF-8 Plain Text
Title : CHT
Language : Chinese
Default : No
Forced : No

Menu
00:00:00.000 : en:00:00:00.000
00:12:47.320 : en:00:12:47.320
00:22:59.560 : en:00:22:59.560
00:33:29.360 : en:00:33:29.360
00:46:05.960 : en:00:46:05.960
00:57:54.640 : en:00:57:54.640
01:10:06.120 : en:01:10:06.120
01:22:14.520 : en:01:22:14.520
01:30:13.840 : en:01:30:13.840
01:44:47.280 : en:01:44:47.280
01:53:39.240 : en:01:53:39.240
02:05:33.080 : en:02:05:33.080

Subtitulos

Grupo: BiPOLAR
Versión: BDRip x264 AAC LIMITED EXTENDED
Tamaño: 750 MB
X 1  X----------------------------------------------------------.
X  6 X>> The.Handmaiden.2016.LIMITED.EXTENDED.BDRip.x264-BiPOLAR
X !  X-;--------------------------------------------------------\'
X____X> Video  < 720x302 483kb/s @ crf19 23.976fps ............
X R  X----------------------------------------------------------\'
X  E X> Audio  < Korean 138kb/s 2ch AAC .......................
X L  X----------------------------------------------------------\'
X  E X> Subs   < English (muxed .srt) .........................
X A  X----------------------------------------------------------\'
X  S X> Size   < 760.85mb (797806383bytes) ....................
X E  X----------------------------------------------------------\'
X    X> Length < 2h 48mn ......................................
X  I X----------------------------------------------------------\'
X N  X> IMDb   < http://www.imdb.com/title/tt4016934 ..........
X  F X----------------------------------------------------------\'
X O  X> Notes  < Hi ...........................................
X  ! X           ..............................................
X----X           ..............................................
__    _----------------------------------------------------------\'
Grupo: USURY
Versión: BDRip x264 720p LIMITED EXTENDED DTS
Tamaño: 7.9 GB
The.Handmaiden.2016.LIMITED.EXTENDED.720p.BluRay.x264-USURY

Video...: 1280x536 5243kb/s @ 23.976fps
Audio...: Korean 1509kb/s 6ch DTS
Subs....: English (muxed .srt)
Size....: 8136.92mb (8532184161bytes)
Runtime.: 2h 48mn
IMDb....: http://www.imdb.com/title/tt4016934

20+ minutes longer than the theatrical cut. Also included vobsubs as they
use different colors for Korean and Japanese dialogue.
Grupo: USURY
Versión: BDRip x264 1080p LIMITED EXTENDED DTS
Tamaño: 14.2 GB
The.Handmaiden.2016.LIMITED.EXTENDED.1080p.BluRay.x264-USURY

Video...: 1920x808 10567kb/s @ 23.976fps
Audio...: Korean 1509kb/s 6ch DTS
Subs....: English (muxed .srt)
Size....: 14550.21mb (15256996242bytes)
Runtime.: 2h 48mn
IMDb....: http://www.imdb.com/title/tt4016934

20+ minutes longer than the theatrical cut. Also included vobsubs as they
use different colors for Korean and Japanese dialogue.
Trailer