77
PUNTOS
Calificar
CALIFICA
Calificar
Califica y/o escribe un comentario sobre la película.
Comentarios en el foroFORO

Toni Erdmann (2016)

Inès trabaja en una gran empresa alemana establecida en Bucarest. Su vida está perfectamente organizada hasta que su padre Winfried llega de improvisto y le pregunta ”¿eres feliz?”. Tras su incapacidad para responder, sufre un profundo cambio. Ese padre que a veces estorba y que la avergüenza un poco le va a ayudar a dar nuevamente sentido a su vida gracias a un personaje imaginario: el divertido Toni Erdmann.
Director Maren Ade
Actores Sandra Hüller, Peter Simonischek, Michael Wittenborn
Duración 162 min
País Germany, Austria, Switzerland, Romania
Streaming (Servicio externo)
Grupo: MOViEiT
Versión: BDRip x264 AC3
Tamaño: 1.5 GB
Toni.Erdmann.German.2016.AC3.BDRip.x264-MOViEiT
              
Release Date ... 22.12.2016
Genre .......... Komödie | Drama
Rating ......... FSK 16
Runtime ........ 162 min
Source ......... BD50 @ 24 FPS
Audio .......... Deutsch AC3 5.1 384kbps
Video .......... x264 CRF 19 @ 940kbps
Subtitles ...... Deutsch 
Resolution...... 720 x 390
SiZE ........... 33 x 50 MB 1,50 GB
iMDB Link ...... http://www.imdb.com/title/tt4048272/

Subtitulos

Grupo: M3D
Versión: BDRip x265 720p AAC
Tamaño: 1.1 GB
Toni Erdmann 2016 720p BluRay 10bit x265 HEVC-M3D

Director: Maren Ade
Writer: Maren Ade
Stars: Sandra H³ller, Peter Simonischek, Michael Wittenborn
www.imdb.com/title/tt4048272

File: Mkv 1,11 GB (1.195.893.280 bytes)
Video: HVC1 1280x688 24fps [V: M3D [ger] (hevc main 10, yuv420p10le, 1280x688) [default]]
Audio: AAC 48000Hz stereo [A: M3D [ger] (aac he-aac, 48000 Hz, stereo) [default]]
Subtitle: Turkish, German, English, French

Source: Toni.Erdmann.2016.German.720p.BRRip.1.4GB.MkvCage | 1,41 GB

Subtitulos

Grupo: MkvCage
Versión: BRRip x264 720p AAC
Tamaño: 1.4 GB
Toni Erdmann (2016) GERMAN 720p BRRip 1.4GB - MkvCage

Movie Title: Toni Erdmann (2016)
Director: Maren Ade
Stars: Sandra Hüller, Peter Simonischek, Michael Wittenborn
Release Date: 3 February 2017 (UK)
Genres: Comedy, Drama
Format: MatRoska (Mkv)
File Size: 1.4GB
Resolution: 1280x688
Runtime: 02:42:14
Language: German
Subtitles: None
Encoder: MkvCage (MC) Team
Source: 720p.BluRay.x264-MOViEiT
Vedio/Audio Info (MediaInfo): http://pastehere.xyz/23113

Subtitulos

Grupo: VoMiT
Versión: BDRip x264 AAC
Tamaño: 1.2 GB
Toni.Erdmann.2016.BDRip.x264-VoMiT

Size ...... 1.2 GiB
Duration .. 2 h 42 min
Video ..... x264 720x390 888Kbps (CRF 19) @ 23.976fps
Audio ..... German AAC LC 128Kbps 2ch
Subs ...... English
Grupo: SADPANDA
Versión: BDRip x264 720p DTS
Tamaño: 7.6 GB
Toni.Erdmann.2016.720p.BluRay.x264-SADPANDA

* SIZE ...... 7.6 GiB
* DURATION .. 2 h 42 min
* VIDEO ..... x264 1280x696 5,224Kbps @ 23.976fps
* AUDIO ..... German DTS 1,509Kbps 6ch
* SUBS ...... English
Grupo: SADPANDA
Versión: BDRip x264 1080p DTS
Tamaño: 12 GB
Toni.Erdmann.2016.1080p.BluRay.x264-SADPANDA

* SIZE ...... 12.0 GiB
* DURATION .. 2 h 42 min
* VIDEO ..... x264 1920x1040 9,076Kbps @ 23.976fps
* AUDIO ..... German DTS 1,509Kbps 6ch
* SUBS ...... English
Grupo: EA
Versión: BDRip x264 720p AC3
Tamaño: 10.2 GB
Toni.Erdmann.2016.GERMAN.720p.BluRay.x264.DD5.1-EA

Video
ID                                       : 1
Format                                   : AVC
Format/Info                              : Advanced Video Codec
Format profile                           : High@L4.1
Format settings, CABAC                   : Yes
Format settings, ReFrames                : 9 frames
Codec ID                                 : V_MPEG4/ISO/AVC
Duration                                 : 2h 42mn
Bit rate                                 : 8 359 Kbps
Width                                    : 1 280 pixels
Height                                   : 694 pixels
Display aspect ratio                     : 1.85:1
Frame rate mode                          : Constant
Frame rate                               : 24.000 fps
Color space                              : YUV
Chroma subsampling                       : 4:2:0
Bit depth                                : 8 bits
Scan type                                : Progressive
Bits/(Pixel*Frame)                       : 0.392
Stream size                              : 9.47 GiB (92%)
Title                                    : -EA
Writing library                          : x264 core 148 r2744+55 950084e t_mod_Custom [8-bit@all X86_64]
Encoding settings                        : cabac=1 / ref=9 / deblock=1:-3:-3 / analyse=0x3:0x113 / me=umh / subme=10 / psy=1 / fade_compensate=0.00 / psy_rd=1.04:0.00 / mixed_ref=1 / me_range=32 / chroma_me=1 / trellis=2 / 8x8dct=1 / cqm=0 / deadzone=21,11 / fast_pskip=0 / chroma_qp_offset=-2 / threads=22 / lookahead_threads=3 / sliced_threads=0 / nr=0 / decimate=0 / interlaced=0 / bluray_compat=0 / constrained_intra=0 / fgo=0 / bframes=8 / b_pyramid=2 / b_adapt=2 / b_bias=0 / direct=3 / weightb=1 / open_gop=0 / weightp=2 / keyint=240 / keyint_min=23 / scenecut=40 / intra_refresh=0 / rc_lookahead=60 / rc=crf / mbtree=0 / crf=16.4000 / qcomp=0.75 / qpmin=0:0:0 / qpmax=69:69:69 / qpstep=4 / vbv_maxrate=62500 / vbv_bufsize=78125 / crf_max=0.0 / nal_hrd=none / filler=0 / ip_ratio=1.30 / pb_ratio=1.20 / aq=3:0.80 / aq-sensitivity=10.00 / aq-factor=1.00:1.00:1.00 / aq2=1:0.70 / aq2-sensitivity=15.00 / aq2-factor=1.00:1.00:1.00 / aq3=1:[0.70:0.70]:[0.70:0.70]:[0.70:0.70]:[0.70:0.70] / aq3-sensitivity=10.00 / aq3-factor=[1.00:1.00]:[1.00:1.00]:[1.00:1.00] / aq3-boundary=192:64:24
Language                                 : German
Default                                  : Yes
Forced                                   : No
Color range                              : Limited
Color primaries                          : BT.709
Transfer characteristics                 : BT.709
Matrix coefficients                      : BT.709

Audio #1
ID                                       : 2
Format                                   : AC-3
Format/Info                              : Audio Coding 3
Mode extension                           : CM (complete main)
Format settings, Endianness              : Big
Codec ID                                 : A_AC3
Duration                                 : 2h 42mn
Bit rate mode                            : Constant
Bit rate                                 : 640 Kbps
Channel(s)                               : 6 channels
Channel positions                        : Front: L C R, Side: L R, LFE
Sampling rate                            : 48.0 KHz
Frame rate                               : 31.250 fps (1536 spf)
Compression mode                         : Lossy
Stream size                              : 743 MiB (7%)
Language                                 : German
Default                                  : Yes
Forced                                   : Yes

Audio #2
ID                                       : 3
Format                                   : AAC
Format/Info                              : Advanced Audio Codec
Format profile                           : HE-AAC / LC
Codec ID                                 : A_AAC
Duration                                 : 2h 42mn
Bit rate                                 : 64.0 Kbps
Channel(s)                               : 2 channels
Channel positions                        : Front: L R
Sampling rate                            : 48.0 KHz / 24.0 KHz
Frame rate                               : 23.438 fps (1024 spf)
Compression mode                         : Lossy
Delay relative to video                  : 31ms
Stream size                              : 74.3 MiB (1%)
Title                                    : Commentary with M. Ade, S. Hüller, P. Simonischek
Language                                 : German
Default                                  : No
Forced                                   : No

Text #1
ID                                       : 4
Format                                   : UTF-8
Codec ID                                 : S_TEXT/UTF8
Codec ID/Info                            : UTF-8 Plain Text
Duration                                 : 2h 40mn
Bit rate                                 : 22 bps
Count of elements                        : 869
Stream size                              : 26.6 KiB (0%)
Title                                    : srt
Language                                 : English
Default                                  : Yes
Forced                                   : Yes

Text #2
ID                                       : 5
Format                                   : PGS
Muxing mode                              : zlib
Codec ID                                 : S_HDMV/PGS
Codec ID/Info                            : Picture based subtitle format used on BDs/HD-DVDs
Duration                                 : 2h 23mn
Bit rate                                 : 3 176 bps
Count of elements                        : 1024
Stream size                              : 3.26 MiB (0%)
Title                                    : sup
Language                                 : German
Default                                  : No
Forced                                   : No

Text #3
ID                                       : 6
Format                                   : PGS
Muxing mode                              : zlib
Codec ID                                 : S_HDMV/PGS
Codec ID/Info                            : Picture based subtitle format used on BDs/HD-DVDs
Duration                                 : 2h 41mn
Bit rate                                 : 10.0 Kbps
Count of elements                        : 3626
Stream size                              : 11.6 MiB (0%)
Title                                    : sup HoH
Language                                 : German
Default                                  : No
Forced                                   : No

Menu #1
00:00:00.000                             : en:00:00:00.000
00:09:06.625                             : en:00:09:06.625
00:18:02.917                             : en:00:18:02.917
00:36:33.833                             : en:00:36:33.833
00:52:43.833                             : en:00:52:43.833
01:11:32.167                             : en:01:11:32.167
01:36:39.917                             : en:01:36:39.917
02:06:09.958                             : en:02:06:09.958
02:27:28.958                             : en:02:27:28.958

Menu #2
00:00:00.097                             : en:00:00:00.097

Subtitulos

Grupo: EA
Versión: BDRip x264 1080p AC3
Tamaño: 20.2 GB
Toni.Erdmann.2016.GERMAN.1080p.BluRay.x264.DD5.1-EA

Video
ID                                       : 1
Format                                   : AVC
Format/Info                              : Advanced Video Codec
Format profile                           : High@L4.1
Format settings, CABAC                   : Yes
Format settings, ReFrames                : 4 frames
Codec ID                                 : V_MPEG4/ISO/AVC
Duration                                 : 2h 42mn
Bit rate                                 : 17.2 Mbps
Width                                    : 1 920 pixels
Height                                   : 1 040 pixels
Display aspect ratio                     : 1.85:1
Frame rate mode                          : Constant
Frame rate                               : 24.000 fps
Color space                              : YUV
Chroma subsampling                       : 4:2:0
Bit depth                                : 8 bits
Scan type                                : Progressive
Bits/(Pixel*Frame)                       : 0.358
Stream size                              : 19.4 GiB (96%)
Title                                    : -EA
Writing library                          : x264 core 148 r2744+55 950084e t_mod_Custom [8-bit@all X86_64]
Encoding settings                        : cabac=1 / ref=4 / deblock=1:-3:-3 / analyse=0x3:0x113 / me=umh / subme=10 / psy=1 / fade_compensate=0.00 / psy_rd=1.04:0.00 / mixed_ref=1 / me_range=32 / chroma_me=1 / trellis=2 / 8x8dct=1 / cqm=0 / deadzone=21,11 / fast_pskip=0 / chroma_qp_offset=-2 / threads=24 / lookahead_threads=4 / sliced_threads=0 / nr=0 / decimate=0 / interlaced=0 / bluray_compat=0 / constrained_intra=0 / fgo=0 / bframes=7 / b_pyramid=2 / b_adapt=2 / b_bias=0 / direct=3 / weightb=1 / open_gop=0 / weightp=2 / keyint=240 / keyint_min=23 / scenecut=40 / intra_refresh=0 / rc_lookahead=60 / rc=crf / mbtree=0 / crf=18.0000 / qcomp=0.75 / qpmin=0:0:0 / qpmax=69:69:69 / qpstep=4 / vbv_maxrate=62500 / vbv_bufsize=78125 / crf_max=0.0 / nal_hrd=none / filler=0 / ip_ratio=1.30 / pb_ratio=1.20 / aq=3:0.80 / aq-sensitivity=10.00 / aq-factor=1.00:1.00:1.00 / aq2=1:0.70 / aq2-sensitivity=15.00 / aq2-factor=1.00:1.00:1.00 / aq3=1:[0.70:0.70]:[0.70:0.70]:[0.70:0.70]:[0.70:0.70] / aq3-sensitivity=10.00 / aq3-factor=[1.00:1.00]:[1.00:1.00]:[1.00:1.00] / aq3-boundary=192:64:24
Language                                 : German
Default                                  : Yes
Forced                                   : No
Color range                              : Limited
Color primaries                          : BT.709
Transfer characteristics                 : BT.709
Matrix coefficients                      : BT.709

Audio #1
ID                                       : 2
Format                                   : AC-3
Format/Info                              : Audio Coding 3
Mode extension                           : CM (complete main)
Format settings, Endianness              : Big
Codec ID                                 : A_AC3
Duration                                 : 2h 42mn
Bit rate mode                            : Constant
Bit rate                                 : 640 Kbps
Channel(s)                               : 6 channels
Channel positions                        : Front: L C R, Side: L R, LFE
Sampling rate                            : 48.0 KHz
Frame rate                               : 31.250 fps (1536 spf)
Compression mode                         : Lossy
Stream size                              : 743 MiB (4%)
Language                                 : German
Default                                  : Yes
Forced                                   : Yes

Audio #2
ID                                       : 3
Format                                   : AAC
Format/Info                              : Advanced Audio Codec
Format profile                           : HE-AAC / LC
Codec ID                                 : A_AAC
Duration                                 : 2h 42mn
Bit rate                                 : 64.0 Kbps
Channel(s)                               : 2 channels
Channel positions                        : Front: L R
Sampling rate                            : 48.0 KHz / 24.0 KHz
Frame rate                               : 23.438 fps (1024 spf)
Compression mode                         : Lossy
Delay relative to video                  : 31ms
Stream size                              : 74.3 MiB (0%)
Title                                    : Commentary with M. Ade, S. Hüller, P. Simonischek
Language                                 : German
Default                                  : No
Forced                                   : No

Text #1
ID                                       : 4
Format                                   : UTF-8
Codec ID                                 : S_TEXT/UTF8
Codec ID/Info                            : UTF-8 Plain Text
Duration                                 : 2h 40mn
Bit rate                                 : 22 bps
Count of elements                        : 869
Stream size                              : 26.6 KiB (0%)
Title                                    : srt
Language                                 : English
Default                                  : Yes
Forced                                   : Yes

Text #2
ID                                       : 5
Format                                   : PGS
Muxing mode                              : zlib
Codec ID                                 : S_HDMV/PGS
Codec ID/Info                            : Picture based subtitle format used on BDs/HD-DVDs
Duration                                 : 2h 23mn
Bit rate                                 : 6 306 bps
Count of elements                        : 1024
Stream size                              : 6.47 MiB (0%)
Title                                    : sup
Language                                 : German
Default                                  : No
Forced                                   : No

Text #3
ID                                       : 6
Format                                   : PGS
Muxing mode                              : zlib
Codec ID                                 : S_HDMV/PGS
Codec ID/Info                            : Picture based subtitle format used on BDs/HD-DVDs
Duration                                 : 2h 41mn
Bit rate                                 : 19.9 Kbps
Count of elements                        : 3626
Stream size                              : 23.0 MiB (0%)
Title                                    : sup HoH
Language                                 : German
Default                                  : No
Forced                                   : No

Menu #1
00:00:00.000                             : en:00:00:00.000
00:09:06.625                             : en:00:09:06.625
00:18:02.917                             : en:00:18:02.917
00:36:33.833                             : en:00:36:33.833
00:52:43.833                             : en:00:52:43.833
01:11:32.167                             : en:01:11:32.167
01:36:39.917                             : en:01:36:39.917
02:06:09.958                             : en:02:06:09.958
02:27:28.958                             : en:02:27:28.958

Menu #2
00:00:00.097                             : en:00:00:00.097

Subtitulos

Trailer