78
PUNTOS
Calificar
CALIFICA
Calificar
Califica y/o escribe un comentario sobre la película.
Comentarios en el foroFORO

Kongens nei (2016)

El 9 de abril de 1940, los soldados alemanes llegan a la ciudad de Oslo. El rey de Noruega se enfrenta entonces a un dilema que podría cambiar para siempre la historia de su país.
Director Erik Poppe
Actores Jesper Christensen, Anders Baasmo Christiansen, Odd-Audor Bentsen
Duración 133 min
País Norway
Streaming (Servicio externo)
Grupo: NoGRP
Versión: BRRip XviD
Tamaño: 1.5 GB
Format : AVI
Codec ID : XVID
File size : 1.58 GB
Duration : 2 h 10 min
Video bit rate : 1600 kb/s
Width : 1920 pixels
Height : 800 pixels
Display aspect ratio : 2.40:1
Frame rate : 25.000 FPS
Codec ID/Hint : MP3
Audio bit rate : 128 kb/s

Language: Norwegian / German
Subs srt: Portuguese
Genre: War / History / Drama

Subtitulos

Grupo: HORiZON-ArtSubs
Versión: BRRip x264 1080p AC3
Tamaño: 1.7 GB
The.Kings.Choice.[Kongens.Nei].2016.1080p.BRRip.x264.AC3.HORiZON-ArtSubs

General
Unique ID                      : 17286003859259394554760956990893229853 (0xD0129CA6EE02FB6617FF96DF732871D)
Complete name                  : The.Kings.Choice.[Kongens.Nei].2016.1080p.BRRip.x264.AC3.HORiZON-ArtSubs.mkv
Format                         : Matroska
Format version                 : Version 2
File size                      : 1.75 GiB
Duration                       : 2h 10mn
Overall bit rate               : 1 916 Kbps
Writing application            : HandBrake 0.9.5
Writing library                : libmkv 0.6.4.1

Video
ID                             : 1
Format                         : AVC
Format/Info                    : Advanced Video Codec
Format profile                 : High@L4.0
Format settings, CABAC         : Yes
Format settings, ReFrames      : 4 frames
Codec ID                       : V_MPEG4/ISO/AVC
Duration                       : 2h 10mn
Bit rate                       : 1 286 Kbps
Width                          : 1 920 pixels
Height                         : 800 pixels
Display aspect ratio           : 2.40:1
Frame rate mode                : Constant
Frame rate                     : 25.000 fps
Color space                    : YUV
Chroma subsampling             : 4:2:0
Bit depth                      : 8 bits
Scan type                      : Progressive
Bits/(Pixel*Frame)             : 0.033
Stream size                    : 1.13 GiB (65%)
Writing library                : x264 core 112
Encoding settings              : cabac=1 / ref=3 / deblock=1:0:0 / analyse=0x3:0x113 / me=hex / subme=7 / psy=1 / psy_rd=1.00:0.00 / mixed_ref=1 / me_range=16 / chroma_me=1 / trellis=1 / 8x8dct=1 / cqm=0 / deadzone=21,11 / fast_pskip=1 / chroma_qp_offset=-2 / threads=9 / sliced_threads=0 / nr=0 / decimate=1 / interlaced=0 / constrained_intra=0 / bframes=3 / b_pyramid=2 / b_adapt=2 / b_bias=0 / direct=1 / weightb=1 / open_gop=0 / weightp=2 / keyint=250 / keyint_min=25 / scenecut=40 / intra_refresh=0 / rc_lookahead=50 / rc=abr / mbtree=1 / bitrate=1286 / ratetol=1.0 / qcomp=0.60 / qpmin=3 / qpmax=51 / qpstep=4 / ip_ratio=1.40 / aq=1:1.00
Language                       : English
Default                        : Yes
Forced                         : No
Color primaries                : BT.709
Transfer characteristics       : BT.709
Matrix coefficients            : BT.709
Color range                    : Limited

Audio
ID                             : 2
Format                         : AC-3
Format/Info                    : Audio Coding 3
Mode extension                 : CM (complete main)
Format settings, Endianness    : Big
Codec ID                       : A_AC3
Duration                       : 2h 10mn
Bit rate mode                  : Constant
Bit rate                       : 640 Kbps
Channel(s)                     : 6 channels
Channel positions              : Front: L C R, Side: L R, LFE
Sampling rate                  : 48.0 KHz
Bit depth                      : 16 bits
Compression mode               : Lossy
Stream size                    : 597 MiB (33%)
Language                       : Norwegian
Default                        : Yes
Forced                         : No

Text
ID                             : 3
Format                         : UTF-8
Codec ID                       : S_TEXT/UTF8
Codec ID/Info                  : UTF-8 Plain Text
Language                       : Norwegian
Default                        : No
Forced                         : No

Subtitulos

Grupo: YESRLY
Versión: BDRip x264 1080p AC3
Tamaño: 5.1 GB
Kongens.Nei.2016.1080p.BluRay.DD5.1.x264-YESRLY

General
Unique ID                      : 49751536460832831473529856566136206713 (0x256DCC216B05FDFA257D2D936798F579)
Complete name                  : D:\Descargas\uTorrent\Kongens.Nei.2016.1080p.BluRay.DD5.1.x264-YESRLY.mkv
Format                         : Matroska
Format version                 : Version 4 / Version 2
File size                      : 5.14 GiB
Duration                       : 2h 10mn
Overall bit rate               : 5 640 Kbps
Encoded date                   : UTC 2016-12-23 23:31:21
Writing application            : mkvmerge v9.6.0 ('Slave To Your Mind') 64bit
Writing library                : libebml v1.3.4 + libmatroska v1.4.5

Video
ID                             : 3
Format                         : AVC
Format/Info                    : Advanced Video Codec
Format profile                 : High@L4.1
Format settings, CABAC         : Yes
Format settings, ReFrames      : 5 frames
Codec ID                       : V_MPEG4/ISO/AVC
Duration                       : 2h 10mn
Bit rate                       : 4 887 Kbps
Width                          : 1 920 pixels
Height                         : 804 pixels
Display aspect ratio           : 2.40:1
Frame rate mode                : Constant
Frame rate                     : 25.000 fps
Color space                    : YUV
Chroma subsampling             : 4:2:0
Bit depth                      : 8 bits
Scan type                      : Progressive
Bits/(Pixel*Frame)             : 0.127
Stream size                    : 4.45 GiB (87%)
Writing library                : x264 core 148 r2721 72d53ab
Encoding settings              : cabac=1 / ref=5 / deblock=1:0:0 / analyse=0x3:0x133 / me=umh / subme=10 / psy=1 / psy_rd=1.00:0.00 / mixed_ref=1 / me_range=24 / chroma_me=1 / trellis=2 / 8x8dct=1 / cqm=0 / deadzone=21,11 / fast_pskip=1 / chroma_qp_offset=-2 / threads=6 / lookahead_threads=1 / sliced_threads=0 / nr=0 / decimate=1 / interlaced=0 / bluray_compat=0 / constrained_intra=0 / bframes=8 / b_pyramid=2 / b_adapt=2 / b_bias=0 / direct=3 / weightb=1 / open_gop=0 / weightp=2 / keyint=250 / keyint_min=25 / scenecut=40 / intra_refresh=0 / rc_lookahead=60 / rc=crf / mbtree=1 / crf=18.0 / qcomp=0.60 / qpmin=0 / qpmax=69 / qpstep=4 / ip_ratio=1.40 / aq=1:1.00
Default                        : Yes
Forced                         : No

Audio
ID                             : 1
Format                         : AC-3
Format/Info                    : Audio Coding 3
Mode extension                 : CM (complete main)
Format settings, Endianness    : Big
Codec ID                       : A_AC3
Duration                       : 2h 10mn
Bit rate mode                  : Constant
Bit rate                       : 640 Kbps
Channel(s)                     : 6 channels
Channel positions              : Front: L C R, Side: L R, LFE
Sampling rate                  : 48.0 KHz
Bit depth                      : 16 bits
Compression mode               : Lossy
Stream size                    : 597 MiB (11%)
Language                       : Norwegian
Default                        : Yes
Forced                         : No

Text
ID                             : 2
Format                         : UTF-8
Codec ID                       : S_TEXT/UTF8
Codec ID/Info                  : UTF-8 Plain Text
Language                       : Norwegian
Default                        : Yes
Forced                         : No

Subtitulos

Trailer