84
PUNTOS
Calificar
CALIFICA
Calificar
Califica y/o escribe un comentario sobre la película.
Comentarios en el foroFORO

The Salt of the Earth (2014)

Desde hace cuarenta años, el fotógrafo Sebastião Salgado recorre los continentes tratando de captar los cambios de la humanidad. Ha sido testigo de grandes acontecimientos que han marcado la historia reciente: conflictos internacionales, hambruna, éxodos, etc. Sin embargo, ahora decide visitar territorios vírgenes con grandiosos paisajes y fauna y flora exóticas. Se trata de un gran homenaje fotográfico a la belleza del planeta. Participan en el proyecto su hijo Juliano y Wim Wenders, también fotógrafo.
Director Juliano Ribeiro Salgado, Wim Wenders
Actores Sebastião Salgado, Wim Wenders, Lélia Wanick Salgado
Duración 110 min
País France, Brazil, Italy
Streaming (Servicio externo)
Grupo: ROVERS
Versión: BDRip x264 720p DOCU DTS
Tamaño: 5.5 GB
The.Salt.of.the.Earth.2014.LIMITED.DOCU.720p.BluRay.x264-ROVERS

Date......: 26.06.2015
Video.....: X264 @ 5579Kbps
FPS.......: 23.976
Resolution: 1280x688
Size......: 5593MB (5864559349 Bytes)
Audio.....: DTS 1509Kbps 6ch
Language..: English
Subtitles.: English forced,  English
Runtime...: 1h 50mn

Subtitulos

Grupo: ROVERS
Versión: BDRip x264 LIMITED AAC DOCU
Tamaño: 575 MB
The.Salt.of.the.Earth.2014.LIMITED.DOCU.BDRip.x264-ROVERS

Date......: 26.06.2015
Video.....: X264 @ crf 19
FPS.......: 23.976
Resolution: 720x388
Size......: 569MB (596124190 Bytes)
Audio.....: AAC LC 2ch 48.0 KHz
Language..: English
Subtitles.: English forced,  English
Runtime...: 1h 50mn

Subtitulos

Grupo: HORiZON-ArtSubs
Versión: BRRip x264 AC3
Tamaño: 2.3 GB
The.Salt.of.the.Earth.2014.BRRip.x264.HORiZON-ArtSubs

General
Unique ID                      : 205476987967138718539702958848182994342 (0x9A956DABAD70E6E8877B4146CBF645A6)
Complete name                  : The.Salt.of.the.Earth.2014.BRRip.x264.HORiZON-ArtSubs.mkv
Format                         : Matroska
Format version                 : Version 2
File size                      : 2.32 GiB
Duration                       : 1h 50mn
Overall bit rate mode          : Variable
Overall bit rate               : 3 016 Kbps
Movie name                     : The.Salt.of.the.Earth.2014.BRRip.x264.HORiZON-ArtSubs
Encoded date                   : UTC 2015-04-19 22:45:41
Writing application            : DVDFab 9.1.4.0
Writing library                : libebml v0.7.8 + libmatroska v0.8.1

Video
ID                             : 1
Format                         : AVC
Format/Info                    : Advanced Video Codec
Format profile                 : [email protected]
Format settings, CABAC         : Yes
Format settings, ReFrames      : 2 frames
Codec ID                       : V_MPEG4/ISO/AVC
Duration                       : 1h 50mn
Bit rate mode                  : Variable
Bit rate                       : 2 060 Kbps
Maximum bit rate               : 3 226 Kbps
Width                          : 1 024 pixels
Height                         : 684 pixels
Display aspect ratio           : 3:2
Frame rate mode                : Constant
Frame rate                     : 23.976 fps
Color space                    : YUV
Chroma subsampling             : 4:2:0
Bit depth                      : 8 bits
Scan type                      : Progressive
Bits/(Pixel*Frame)             : 0.123
Stream size                    : 1.58 GiB (68%)
Default                        : Yes
Forced                         : No

Audio #1
ID                             : 2
Format                         : AC-3
Format/Info                    : Audio Coding 3
Mode extension                 : CM (complete main)
Format settings, Endianness    : Big
Codec ID                       : A_AC3
Duration                       : 1h 50mn
Bit rate mode                  : Constant
Bit rate                       : 448 Kbps
Channel(s)                     : 6 channels
Channel positions              : Front: L C R, Side: L R, LFE
Sampling rate                  : 48.0 KHz
Bit depth                      : 16 bits
Compression mode               : Lossy
Stream size                    : 353 MiB (15%)
Language                       : French
Default                        : Yes
Forced                         : No

Audio #2
ID                             : 3
Format                         : AC-3
Format/Info                    : Audio Coding 3
Mode extension                 : CM (complete main)
Format settings, Endianness    : Big
Codec ID                       : A_AC3
Duration                       : 1h 50mn
Bit rate mode                  : Constant
Bit rate                       : 448 Kbps
Channel(s)                     : 6 channels
Channel positions              : Front: L C R, Side: L R, LFE
Sampling rate                  : 48.0 KHz
Bit depth                      : 16 bits
Compression mode               : Lossy
Stream size                    : 353 MiB (15%)
Language                       : French
Default                        : No
Forced                         : No

Subtitulos

Grupo: MkvCage
Versión: BRRip x264 720p AAC
Tamaño: 850 MB
The.Salt.of.the.Earth.2014.720p.BRRip.850MB.MkvCage

General
Unique ID                      : 175420423007862602702378052943860103542 (0x83F8BE9B03030465A9E0814EFF8A7976)
Complete name                  : The.Salt.of.the.Earth.2014.720p.BRRip.850MB.MkvCage.mkv
Format                         : Matroska
Format version                 : Version 2
File size                      : 850 MiB
Duration                       : 1h 50mn
Overall bit rate               : 1 081 Kbps
Encoded date                   : UTC 2015-04-22 13:16:08
Writing application            : mkvmerge v7.0.0 ('Where We Going') 32bit built on Jun  9 2014 15:08:34
Writing library                : libebml v1.3.0 + libmatroska v1.4.1
DURATION                       : 01:50:00.448000000
NUMBER_OF_FRAMES               : 154698
NUMBER_OF_BYTES                : 65977786
_STATISTICS_WRITING_APP        : mkvmerge v7.0.0 ('Where We Going') 32bit built on Jun  9 2014 15:08:34
_STATISTICS_WRITING_DATE_UTC   : 2015-04-22 13:16:08
_STATISTICS_TAGS               : BPS DURATION NUMBER_OF_FRAMES NUMBER_OF_BYTES

Video
ID                             : 1
Format                         : AVC
Format/Info                    : Advanced Video Codec
Format profile                 : [email protected]
Format settings, CABAC         : Yes
Format settings, ReFrames      : 9 frames
Codec ID                       : V_MPEG4/ISO/AVC
Duration                       : 1h 50mn
Nominal bit rate               : 999 Kbps
Width                          : 1 024 pixels
Height                         : 684 pixels
Display aspect ratio           : 3:2
Frame rate mode                : Constant
Frame rate                     : 23.976 fps
Color space                    : YUV
Chroma subsampling             : 4:2:0
Bit depth                      : 8 bits
Scan type                      : Progressive
Bits/(Pixel*Frame)             : 0.059
Writing library                : x264 core 142 r2431 ac76440
Encoding settings              : cabac=1 / ref=9 / deblock=1:-1:-1 / analyse=0x3:0x133 / me=umh / subme=10 / psy=1 / psy_rd=1.00:0.00 / mixed_ref=1 / me_range=24 / chroma_me=1 / trellis=2 / 8x8dct=1 / cqm=0 / deadzone=21,11 / fast_pskip=1 / chroma_qp_offset=-2 / threads=36 / lookahead_threads=4 / sliced_threads=0 / nr=0 / decimate=1 / interlaced=0 / bluray_compat=0 / constrained_intra=0 / bframes=6 / b_pyramid=2 / b_adapt=2 / b_bias=0 / direct=3 / weightb=1 / open_gop=0 / weightp=2 / keyint=240 / keyint_min=23 / scenecut=40 / intra_refresh=0 / rc_lookahead=60 / rc=2pass / mbtree=1 / bitrate=999 / ratetol=1.0 / qcomp=0.60 / qpmin=10 / qpmax=51 / qpstep=4 / cplxblur=20.0 / qblur=0.5 / vbv_maxrate=62500 / vbv_bufsize=78125 / nal_hrd=none / filler=0 / ip_ratio=1.40 / aq=1:1.00
Default                        : Yes
Forced                         : No

Audio
ID                             : 2
Format                         : AAC
Format/Info                    : Advanced Audio Codec
Format profile                 : HE-AAC / LC
Codec ID                       : A_AAC
Duration                       : 1h 50mn
Channel(s)                     : 2 channels
Channel positions              : Front: L R
Sampling rate                  : 48.0 KHz / 24.0 KHz
Compression mode               : Lossy
Delay relative to video        : 31ms
Default                        : Yes
Forced                         : No

Subtitulos

Trailer