67
PUNTOS
Calificar
CALIFICA
Calificar
Califica y/o escribe un comentario sobre la película.
Comentarios en el foroFORO

Stereo (2014)

Eric solo piensa en hacerse cargo de su taller de motos y en pasar el rato con su nueva novia y con la hija de esta, pero de repente entra en escena Henry, un tipo raro que se pega a Eric como un parásito. Sin embargo, Henry podría ser de utilidad cuando un mafioso comience a amenazar a Eric y a los suyos.
Director Maximilian Erlenwein
Actores Jürgen Vogel, Moritz Bleibtreu, Petra Schmidt-Schaller
Duración 98 min
País Germany
Streaming (Servicio externo)
Grupo: CHD
Versión: BDRip x264 1080p DTS
Tamaño: 8.9 GB
Stereo.2014.BluRay.1080p.DTS.x264-CHD

RELEASE DATE....: 11/07/2014
THEATRE DATE....: 2014
iMDB URL........: http://www.imdb.com/title/tt3348102/
iMDB RATiNG.....: 7.0/10 from 636 users 
GENRE...........: Thriller 
SOURCE .........: Stereo 2014 GER 1080p Blu-ray AVC DTS-HD MA5.1
ViDEO BiTRATE...: x264 L4.1 High @ 11.6Mbps
FRAME RATE......: 23.976 fps
AUDiO .........:GER DTS @ 1509Kbps
RUNTiME.........: 1:35:47 (h:m:s)
ASPECT RATiO....: 2.40 : 1
RESOLUTiON......: 1920 X 800
SUBTiTLES.......: GER
CHAPTERS........: N/A
FilE SiZE.......: 8.93 GiB
Encoder.........: eaglesking@CHD
x264 [info]: profile High, level 4.1
x264 [info]: frame I:1332 Avg QP:10.23 size:270573
x264 [info]: frame P:32087 Avg QP:12.31 size:106279
x264 [info]: frame B:107233 Avg QP:14.42 size: 43838
x264 [info]: consecutive B-frames: 2.7% 3.1% 10.4% 20.4% 16.3% 40.9% 6.2%

Subtitulos

Grupo: CHD
Versión: BDRip x264 720p DTS
Tamaño: 5.5 GB
Stereo.2014.BluRay.720P.DTS.x264-CHD

General
Unique ID                                : 182564420029636083956497722413279832755 (0x8958A0DA54E69C5C946F82ED639B6AB3)
Complete name                            : Stereo.2014.BluRay.720P.DTS.x264-CHD.mkv
Format                                   : Matroska
Format version                           : Version 4 / Version 2
File size                                : 5.56 GiB
Duration                                 : 1h 37mn
Overall bit rate                         : 8 146 Kbps
Encoded date                             : UTC 2014-11-04 02:40:14
Writing application                      : mkvmerge v6.9.1 ('Blue Panther') 64bit built on Apr 18 2014 18:23:38
Writing library                          : libebml v1.3.0 + libmatroska v1.4.1

Video
ID                                       : 1
Format                                   : AVC
Format/Info                              : Advanced Video Codec
Format profile                           : High@L4.1
Format settings, CABAC                   : Yes
Format settings, ReFrames                : 9 frames
Codec ID                                 : V_MPEG4/ISO/AVC
Duration                                 : 1h 37mn
Bit rate                                 : 6 628 Kbps
Width                                    : 1 280 pixels
Height                                   : 534 pixels
Display aspect ratio                     : 2.40:1
Frame rate mode                          : Constant
Frame rate                               : 24.000 fps
Color space                              : YUV
Chroma subsampling                       : 4:2:0
Bit depth                                : 8 bits
Scan type                                : Progressive
Bits/(Pixel*Frame)                       : 0.404
Stream size                              : 4.42 GiB (79%)
Writing library                          : x264 core 142 r2431 ac76440
Encoding settings                        : cabac=1 / ref=9 / deblock=1:-3:-3 / analyse=0x3:0x113 / me=umh / subme=11 / psy=1 / psy_rd=1.00:0.05 / mixed_ref=1 / me_range=32 / chroma_me=1 / trellis=2 / 8x8dct=1 / cqm=0 / deadzone=21,11 / fast_pskip=0 / chroma_qp_offset=-2 / threads=8 / lookahead_threads=1 / sliced_threads=0 / nr=0 / decimate=1 / interlaced=0 / bluray_compat=0 / constrained_intra=0 / bframes=5 / b_pyramid=2 / b_adapt=2 / b_bias=0 / direct=3 / weightb=1 / open_gop=0 / weightp=2 / keyint=250 / keyint_min=24 / scenecut=40 / intra_refresh=0 / rc=2pass / mbtree=0 / bitrate=6628 / ratetol=1.0 / qcomp=0.70 / qpmin=0 / qpmax=69 / qpstep=4 / cplxblur=20.0 / qblur=0.5 / ip_ratio=1.40 / pb_ratio=1.30 / aq=2:0.90
Language                                 : English
Default                                  : Yes
Forced                                   : No

Audio
ID                                       : 2
Format                                   : DTS
Format/Info                              : Digital Theater Systems
Mode                                     : 16
Format settings, Endianness              : Big
Codec ID                                 : A_DTS
Duration                                 : 1h 37mn
Bit rate mode                            : Constant
Bit rate                                 : 1 509 Kbps
Channel(s)                               : 6 channels
Channel positions                        : Front: L C R, Side: L R, LFE
Sampling rate                            : 48.0 KHz
Bit depth                                : 24 bits
Compression mode                         : Lossy
Stream size                              : 1.03 GiB (19%)
Language                                 : German
Default                                  : Yes
Forced                                   : No

Text
ID                                       : 3
Format                                   : PGS
Muxing mode                              : zlib
Codec ID                                 : S_HDMV/PGS
Codec ID/Info                            : The same subtitle format used on BDs/HD-DVDs
Language                                 : German
Default                                  : Yes
Forced                                   : No
Trailer