63
PUNTOS
Calificar
CALIFICA
Calificar
Califica y/o escribe un comentario sobre la película.
Comentarios en el foroFORO

Little Sister (2016)

Octubre de 2008, la joven monja Colleen trata de evitar todo contacto de su familia, hasta que recibe un correo electrónico de su madre que anuncia: «Tu hermano está en casa». Al regresar a su casa de la infancia en Asheville, Carolina del Norte, se encuentra con su antigua habitación exactamente como la dejó: pintada de negro y cubierta de pósters de goth-metal. Sus padres se muestran felices por verla, pero el malestar y la incomodidad abunda. Su hermano está viviendo como un recluso en la casa de invitados desde que volvió de la guerra de Irak. Durante la visita de Colleen, las tensiones suben y bajan con un poco de ayuda de Halloween, los pastelitos de marihuana, y GWAR.
Director Zach Clark
Actores Addison Timlin, Ally Sheedy, Keith Poulson
Duración 91 min
País USA
Streaming (Servicio externo)
Grupo: FGT
Versión: WEB-DL x264 AAC
Tamaño: 825 MB
Little.Sister.2016.WEB-DL.x264-FGT

Video
ID                                       : 1
Format                                   : AVC
Format/Info                              : Advanced Video Codec
Format profile                           : [email protected]
Format settings, CABAC                   : Yes
Format settings, ReFrames                : 5 frames
Codec ID                                 : avc1
Codec ID/Info                            : Advanced Video Coding
Duration                                 : 1h 31mn
Bit rate                                 : 1 100 Kbps
Width                                    : 720 pixels
Height                                   : 304 pixels
Display aspect ratio                     : 2.40:1
Frame rate mode                          : Constant
Frame rate                               : 23.976 (24000/1001) fps
Color space                              : YUV
Chroma subsampling                       : 4:2:0
Bit depth                                : 8 bits
Scan type                                : Progressive
Bits/(Pixel*Frame)                       : 0.210
Stream size                              : 717 MiB (89%)
Title                                    : Little.Sister.2016.WEB-DL.x264-FGT
Writing library                          : x264 core 148 r2597M e86f3a1
Encoding settings                        : cabac=1 / ref=5 / deblock=1:-2:-2 / analyse=0x3:0x113 / me=umh / subme=8 / psy=1 / psy_rd=0.90:0.00 / mixed_ref=1 / me_range=16 / chroma_me=1 / trellis=1 / 8x8dct=1 / cqm=0 / deadzone=21,11 / fast_pskip=1 / chroma_qp_offset=-2 / threads=40 / lookahead_threads=4 / sliced_threads=0 / nr=0 / decimate=1 / interlaced=0 / bluray_compat=0 / constrained_intra=0 / bframes=3 / b_pyramid=2 / b_adapt=2 / b_bias=0 / direct=3 / weightb=1 / open_gop=0 / weightp=2 / keyint=250 / keyint_min=25 / scenecut=40 / intra_refresh=0 / rc_lookahead=50 / rc=abr / mbtree=1 / bitrate=1100 / ratetol=1.0 / qcomp=0.60 / qpmin=0 / qpmax=69 / qpstep=4 / vbv_maxrate=31250 / vbv_bufsize=31250 / nal_hrd=none / filler=0 / ip_ratio=1.40 / aq=1:1.00
Language                                 : English

Audio
ID                                       : 2
Format                                   : AAC
Format/Info                              : Advanced Audio Codec
Format profile                           : LC
Codec ID                                 : 40
Duration                                 : 1h 31mn
Duration_LastFrame                       : 32ms
Bit rate mode                            : Variable
Bit rate                                 : 128 Kbps
Maximum bit rate                         : 31.3 Mbps
Channel(s)                               : 2 channels
Channel positions                        : Front: L R
Sampling rate                            : 48.0 KHz
Frame rate                               : 46.875 fps (1024 spf)
Compression mode                         : Lossy
Stream size                              : 83.5 MiB (10%)
Title                                    : Little.Sister.2016.WEB-DL.x264-FGT
Language                                 : English
Default                                  : Yes
Alternate group                          : 1

Subtitulos

Grupo: WiDE
Versión: BDRip x264 AAC
Tamaño: 450 MB
Little.Sister.2016.BDRip.x264-WiDE

REL. DATE: 2/7/2017
RESOLUTiON: 720x302
AUDiO: 160 VBR AAC Stereo English
SUBTiTLES: English
RUNTiME: 92 min
FORMAT: x264
SOURCE: Retail Blu-Ray
FiLES: 32x15mb

Subtitulos

Grupo: PSYCHD
Versión: BDRip x264 720p DTS
Tamaño: 4.4 GB
Little.Sister.2016.720p.BluRay.x264-PSYCHD

Date..............: 02/2017
IMDB..............: http://www.imdb.com/title/tt5434870/
Ratings...........: 6.3/10   1,258 votes
Runtime...........: 01:31:24
Video.............: 1280x536 / 23.976fps
Audio.............: DTS 5.1 1509kbps

Subtitulos

Grupo: PSYCHD
Versión: BDRip x264 1080p DTS
Tamaño: 6.6 GB
Little.Sister.2016.1080p.BluRay.x264-PSYCHD

Date..............: 02/2017
IMDB..............: http://www.imdb.com/title/tt5434870/
Ratings...........: 6.3/10   1,258 votes
Runtime...........: 01:31:24
Video.............: 1920x808 / 23.976fps
Audio.............: DTS 5.1 1509kbps

Subtitulos

Trailer