61
PUNTOS
Calificar
CALIFICA
Calificar
Califica y/o escribe un comentario sobre la película.
Comentarios en el foroFORO

Dick Tracy (1990)

Dick Tracy (Warren Beatty) es un policía valiente e incorruptible que está decidido a acabar con el crimen en la ciudad. Pero, para ello, deberá enfrentarse al gángster Bambino Caprice (Al Pacino) y su banda. Su voluntad y determinación se tambalean cuando conoce a la seductora Suspiros Mahoney (Madonna).
Director Warren Beatty
Actores Warren Beatty, Madonna, Al Pacino
Duración 105 min
País USA
Streaming (Servicio externo)
Grupo: NoGRP
Versión: BDRip H.264 1080p AAC
Tamaño: 1.6 GB
General
Complete name                  : Dick Tracy - Al Pacino Action 1990 Eng Subs 1080p [H264-mp4].mp4
Format                         : MPEG-4
Format profile                 : Base Media / Version 2
Codec ID                       : mp42
File size                      : 1.65 GiB
Duration                       : 1h 45mn
Overall bit rate mode          : Variable
Overall bit rate               : 2 243 Kbps
Movie name                     : Dick Tracy - Al Pacino Action 1990 Eng Subs 1080p [H264-mp4]
Genre                          : Action
Recorded date                  : 1990
Encoded date                   : UTC 2015-04-26 01:18:29
Tagged date                    : UTC 2015-04-27 15:00:39
Encoded by                     : TBox
Languages                      : English
Subtitles                      : English

Video
ID                             : 1
Format                         : AVC
Format/Info                    : Advanced Video Codec
Format profile                 : High@L4.1
Format settings, CABAC         : Yes
Format settings, ReFrames      : 4 frames
Codec ID                       : avc1
Codec ID/Info                  : Advanced Video Coding
Duration                       : 1h 45mn
Bit rate                       : 2 111 Kbps
Width                          : 1 920 pixels
Height                         : 1 040 pixels
Display aspect ratio           : 1.85:1
Frame rate mode                : Variable
Frame rate                     : 23.976 fps
Minimum frame rate             : 23.256 fps
Maximum frame rate             : 24.390 fps
Color space                    : YUV
Chroma subsampling             : 4:2:0
Bit depth                      : 8 bits
Scan type                      : Progressive
Bits/(Pixel*Frame)             : 0.044
Stream size                    : 1.55 GiB (94%)
Writing library                : x264 core 130 r2273 b3065e6
Encoding settings              : cabac=1 / ref=2 / deblock=1:-1:-1 / analyse=0x3:0x113 / me=hex / subme=4 / psy=1 / psy_rd=1.00:0.15 / mixed_ref=0 / me_range=16 / chroma_me=1 / trellis=1 / 8x8dct=1 / cqm=0 / deadzone=21,11 / fast_pskip=1 / chroma_qp_offset=-1 / threads=6 / lookahead_threads=1 / sliced_threads=0 / nr=0 / decimate=1 / interlaced=0 / bluray_compat=0 / constrained_intra=0 / bframes=3 / b_pyramid=2 / b_adapt=1 / b_bias=0 / direct=1 / weightb=1 / open_gop=0 / weightp=1 / keyint=240 / keyint_min=24 / scenecut=40 / intra_refresh=0 / rc_lookahead=20 / rc=2pass / mbtree=1 / bitrate=2111 / ratetol=1.0 / qcomp=0.60 / qpmin=0 / qpmax=69 / qpstep=4 / cplxblur=20.0 / qblur=0.5 / vbv_maxrate=62500 / vbv_bufsize=78125 / nal_hrd=none / ip_ratio=1.40 / aq=1:1.00
Encoded date                   : UTC 2015-04-26 01:18:29
Tagged date                    : UTC 2015-04-26 03:10:54
Color primaries                : BT.709
Transfer characteristics       : BT.709
Matrix coefficients            : BT.709
Color range                    : Limited

Audio
ID                             : 2
Format                         : AAC
Format/Info                    : Advanced Audio Codec
Format profile                 : LC
Codec ID                       : 40
Duration                       : 1h 45mn
Bit rate mode                  : Variable
Bit rate                       : 128 Kbps
Maximum bit rate               : 259 Kbps
Channel(s)                     : 2 channels
Channel positions              : Front: L R
Sampling rate                  : 48.0 KHz
Compression mode               : Lossy
Stream size                    : 96.2 MiB (6%)
Title                          : English AAC
Language                       : English
Encoded date                   : UTC 2015-04-26 01:18:29
Tagged date                    : UTC 2015-04-26 03:10:53

Text
ID                             : 3
Format                         : Timed Text
Muxing mode                    : sbtl
Codec ID                       : tx3g
Duration                       : 1h 45mn
Bit rate mode                  : Variable
Bit rate                       : 72 bps
Stream size                    : 55.3 KiB (0%)
Language                       : English
Encoded date                   : UTC 2015-04-26 01:18:29
Tagged date                    : UTC 2015-04-26 03:10:53

Subtitulos