63
PUNTOS
Calificar
CALIFICA
Calificar
Califica y/o escribe un comentario sobre la película.
Comentarios en el foroFORO

The Arrival (1996)

El radio astrónomo Zane Ziminski viene escuchando durante años el ruido cósmico en medio de la noche. Al finalizar otra jornada de búsqueda, los delicados sensores se activan de repente con una transmisión por radio, alta y clara, que precede del espacio, una onda de choque. Zane lleva la cinta que representa su prueba a un laboratorio de la Nasa para su análisis. Sin embargo cuando Zane se la entrega a su jefe, es despedido inmediatamente debido a una reducción de plantilla... o quizás porque ha grabado algo que no debe trascender a la opinión pública.
Director David Twohy
Actores Charlie Sheen, Lindsay Crouse, Richard Schiff
Duración 115 min
País USA, Mexico
Streaming (Servicio externo)
Grupo: RARBG
Versión: BDRip H.264 720p AAC
Tamaño: 1.4 GB
The.Arrival.1996.720p.BluRay.H264.AAC-RARBG

Video
ID                                       : 1
Format                                   : AVC
Format/Info                              : Advanced Video Codec
Format profile                           : [email protected]
Format settings, CABAC                   : Yes
Format settings, ReFrames                : 4 frames
Codec ID                                 : avc1
Codec ID/Info                            : Advanced Video Coding
Duration                                 : 1h 55mn
Bit rate                                 : 1 500 Kbps
Width                                    : 1 280 pixels
Height                                   : 694 pixels
Display aspect ratio                     : 1.85:1
Frame rate mode                          : Constant
Frame rate                               : 23.976 fps
Color space                              : YUV
Chroma subsampling                       : 4:2:0
Bit depth                                : 8 bits
Scan type                                : Progressive
Bits/(Pixel*Frame)                       : 0.070
Stream size                              : 1.21 GiB (87%)
Writing library                          : x264 core 144 r2525M 40bb568
Encoding settings                        : cabac=1 / ref=4 / deblock=1:-1:-1 / analyse=0x3:0x113 / me=umh / subme=9 / psy=1 / psy_rd=1.00:0.15 / mixed_ref=1 / me_range=24 / chroma_me=1 / trellis=2 / 8x8dct=1 / cqm=0 / deadzone=21,11 / fast_pskip=1 / chroma_qp_offset=-3 / threads=32 / lookahead_threads=4 / sliced_threads=0 / nr=0 / decimate=1 / interlaced=0 / bluray_compat=0 / constrained_intra=0 / bframes=3 / b_pyramid=2 / b_adapt=1 / b_bias=0 / direct=1 / weightb=1 / open_gop=0 / weightp=2 / keyint=250 / keyint_min=25 / scenecut=40 / intra_refresh=0 / rc_lookahead=50 / rc=2pass / mbtree=1 / bitrate=1500 / ratetol=1.0 / qcomp=0.60 / qpmin=0 / qpmax=69 / qpstep=4 / cplxblur=20.0 / qblur=0.5 / vbv_maxrate=31250 / vbv_bufsize=31250 / nal_hrd=none / filler=0 / ip_ratio=1.40 / aq=3:1.00
Encoded date                             : UTC 1904-01-01 00:00:00
Tagged date                              : UTC 1904-01-01 00:00:00

Audio
ID                                       : 2
Format                                   : AAC
Format/Info                              : Advanced Audio Codec
Format profile                           : LC
Codec ID                                 : 40
Duration                                 : 1h 55mn
Duration_LastFrame                       : 43ms
Bit rate mode                            : Constant
Bit rate                                 : 224 Kbps
Channel(s)                               : 2 channels
Channel(s)_Original                      : 6 channels
Channel positions                        : Front: L C R, Side: L R, LFE
Sampling rate                            : 48.0 KHz
Compression mode                         : Lossy
Stream size                              : 185 MiB (13%)
Language                                 : English
Encoded date                             : UTC 1904-01-01 00:00:00
Tagged date                              : UTC 1904-01-01 00:00:00

Menu #1
ID                                       : 3
Codec ID                                 : text
Duration                                 : 1h 55mn
Language                                 : English
Encoded date                             : UTC 1904-01-01 00:00:00
Tagged date                              : UTC 1904-01-01 00:00:00
Bit rate mode                            : CBR
Duration_FirstFrame                      : 43
Duration_LastFrame                       : -260032
00:00:00.000                             : 00:00:00.000
00:05:00.043                             : 00:05:00.000
00:10:00.043                             : 00:10:00.000
00:15:00.043                             : 00:15:00.000
00:20:00.043                             : 00:20:00.000
00:25:00.043                             : 00:25:00.000
00:30:00.043                             : 00:30:00.000
00:35:00.043                             : 00:35:00.000
00:40:00.043                             : 00:40:00.000
00:45:00.043                             : 00:45:00.000
00:50:00.043                             : 00:50:00.000
00:55:00.043                             : 00:55:00.000
01:00:00.043                             : 01:00:00.000
01:05:00.043                             : 01:05:00.000
01:10:00.043                             : 01:10:00.000
01:15:00.043                             : 01:15:00.000
01:20:00.043                             : 01:20:00.000
01:25:00.043                             : 01:25:00.000
01:30:00.043                             : 01:30:00.000
01:35:00.043                             : 01:35:00.000
01:40:00.043                             : 01:40:00.000
01:45:00.043                             : 01:45:00.000
01:50:00.043                             : 01:50:00.000
01:55:00.043                             : 01:55:00.000

Menu #2
00:00:00.043                             : 00:00:00.000
00:05:00.043                             : 00:05:00.000
00:10:00.043                             : 00:10:00.000
00:15:00.043                             : 00:15:00.000
00:20:00.043                             : 00:20:00.000
00:25:00.043                             : 00:25:00.000
00:30:00.043                             : 00:30:00.000
00:35:00.043                             : 00:35:00.000
00:40:00.043                             : 00:40:00.000
00:45:00.043                             : 00:45:00.000
00:50:00.043                             : 00:50:00.000
00:55:00.043                             : 00:55:00.000
01:00:00.043                             : 01:00:00.000
01:05:00.043                             : 01:05:00.000
01:10:00.043                             : 01:10:00.000
01:15:00.043                             : 01:15:00.000
01:20:00.043                             : 01:20:00.000
01:25:00.043                             : 01:25:00.000
01:30:00.043                             : 01:30:00.000
01:35:00.043                             : 01:35:00.000
01:40:00.043                             : 01:40:00.000
01:45:00.043                             : 01:45:00.000
01:50:00.043                             : 01:50:00.000
01:55:00.043                             : 01:55:00.000

Subtitulos

Grupo: RARBG
Versión: BDRip H.264 1080p AAC
Tamaño: 2.2 GB
The.Arrival.1996.1080p.BluRay.H264.AAC-RARBG

Video
ID                                       : 1
Format                                   : AVC
Format/Info                              : Advanced Video Codec
Format profile                           : [email protected]
Format settings, CABAC                   : Yes
Format settings, ReFrames                : 4 frames
Codec ID                                 : avc1
Codec ID/Info                            : Advanced Video Coding
Duration                                 : 1h 55mn
Bit rate                                 : 2 500 Kbps
Width                                    : 1 920 pixels
Height                                   : 1 040 pixels
Display aspect ratio                     : 1.85:1
Frame rate mode                          : Constant
Frame rate                               : 23.976 fps
Color space                              : YUV
Chroma subsampling                       : 4:2:0
Bit depth                                : 8 bits
Scan type                                : Progressive
Bits/(Pixel*Frame)                       : 0.052
Stream size                              : 2.01 GiB (92%)
Writing library                          : x264 core 144 r2525M 40bb568
Encoding settings                        : cabac=1 / ref=4 / deblock=1:-1:-1 / analyse=0x3:0x113 / me=umh / subme=9 / psy=1 / psy_rd=1.00:0.15 / mixed_ref=1 / me_range=24 / chroma_me=1 / trellis=2 / 8x8dct=1 / cqm=0 / deadzone=21,11 / fast_pskip=1 / chroma_qp_offset=-3 / threads=32 / lookahead_threads=4 / sliced_threads=0 / nr=0 / decimate=1 / interlaced=0 / bluray_compat=0 / constrained_intra=0 / bframes=3 / b_pyramid=2 / b_adapt=1 / b_bias=0 / direct=1 / weightb=1 / open_gop=0 / weightp=2 / keyint=250 / keyint_min=25 / scenecut=40 / intra_refresh=0 / rc_lookahead=50 / rc=2pass / mbtree=1 / bitrate=2500 / ratetol=1.0 / qcomp=0.60 / qpmin=0 / qpmax=69 / qpstep=4 / cplxblur=20.0 / qblur=0.5 / vbv_maxrate=31250 / vbv_bufsize=31250 / nal_hrd=none / filler=0 / ip_ratio=1.40 / aq=3:1.00
Encoded date                             : UTC 1904-01-01 00:00:00
Tagged date                              : UTC 1904-01-01 00:00:00

Audio
ID                                       : 2
Format                                   : AAC
Format/Info                              : Advanced Audio Codec
Format profile                           : LC
Codec ID                                 : 40
Duration                                 : 1h 55mn
Duration_LastFrame                       : 43ms
Bit rate mode                            : Constant
Bit rate                                 : 224 Kbps
Channel(s)                               : 2 channels
Channel(s)_Original                      : 6 channels
Channel positions                        : Front: L C R, Side: L R, LFE
Sampling rate                            : 48.0 KHz
Compression mode                         : Lossy
Stream size                              : 185 MiB (8%)
Language                                 : English
Encoded date                             : UTC 1904-01-01 00:00:00
Tagged date                              : UTC 1904-01-01 00:00:00

Menu #1
ID                                       : 3
Codec ID                                 : text
Duration                                 : 1h 55mn
Language                                 : English
Encoded date                             : UTC 1904-01-01 00:00:00
Tagged date                              : UTC 1904-01-01 00:00:00
Bit rate mode                            : CBR
Duration_FirstFrame                      : 43
Duration_LastFrame                       : -260032
00:00:00.000                             : 00:00:00.000
00:05:00.043                             : 00:05:00.000
00:10:00.043                             : 00:10:00.000
00:15:00.043                             : 00:15:00.000
00:20:00.043                             : 00:20:00.000
00:25:00.043                             : 00:25:00.000
00:30:00.043                             : 00:30:00.000
00:35:00.043                             : 00:35:00.000
00:40:00.043                             : 00:40:00.000
00:45:00.043                             : 00:45:00.000
00:50:00.043                             : 00:50:00.000
00:55:00.043                             : 00:55:00.000
01:00:00.043                             : 01:00:00.000
01:05:00.043                             : 01:05:00.000
01:10:00.043                             : 01:10:00.000
01:15:00.043                             : 01:15:00.000
01:20:00.043                             : 01:20:00.000
01:25:00.043                             : 01:25:00.000
01:30:00.043                             : 01:30:00.000
01:35:00.043                             : 01:35:00.000
01:40:00.043                             : 01:40:00.000
01:45:00.043                             : 01:45:00.000
01:50:00.043                             : 01:50:00.000
01:55:00.043                             : 01:55:00.000

Menu #2
00:00:00.043                             : 00:00:00.000
00:05:00.043                             : 00:05:00.000
00:10:00.043                             : 00:10:00.000
00:15:00.043                             : 00:15:00.000
00:20:00.043                             : 00:20:00.000
00:25:00.043                             : 00:25:00.000
00:30:00.043                             : 00:30:00.000
00:35:00.043                             : 00:35:00.000
00:40:00.043                             : 00:40:00.000
00:45:00.043                             : 00:45:00.000
00:50:00.043                             : 00:50:00.000
00:55:00.043                             : 00:55:00.000
01:00:00.043                             : 01:00:00.000
01:05:00.043                             : 01:05:00.000
01:10:00.043                             : 01:10:00.000
01:15:00.043                             : 01:15:00.000
01:20:00.043                             : 01:20:00.000
01:25:00.043                             : 01:25:00.000
01:30:00.043                             : 01:30:00.000
01:35:00.043                             : 01:35:00.000
01:40:00.043                             : 01:40:00.000
01:45:00.043                             : 01:45:00.000
01:50:00.043                             : 01:50:00.000
01:55:00.043                             : 01:55:00.000

Subtitulos

Grupo: FGT
Versión: BDRip x264 1080p DTS
Tamaño: 9.2 GB
The.Arrival.1996.1080p.BluRay.x264.DTS-FGT

Video
ID                                       : 1
Format                                   : AVC
Format/Info                              : Advanced Video Codec
Format profile                           : [email protected]
Format settings, CABAC                   : Yes
Format settings, ReFrames                : 4 frames
Codec ID                                 : V_MPEG4/ISO/AVC
Duration                                 : 1h 55mn
Bit rate                                 : 10 000 Kbps
Width                                    : 1 920 pixels
Height                                   : 1 040 pixels
Display aspect ratio                     : 1.85:1
Frame rate mode                          : Constant
Frame rate                               : 23.976 fps
Color space                              : YUV
Chroma subsampling                       : 4:2:0
Bit depth                                : 8 bits
Scan type                                : Progressive
Bits/(Pixel*Frame)                       : 0.209
Stream size                              : 7.83 GiB (85%)
Writing library                          : x264 core 130 r2273 b3065e6
Encoding settings                        : cabac=1 / ref=3 / deblock=1:0:0 / analyse=0x3:0x113 / me=hex / subme=7 / psy=1 / psy_rd=1.00:0.00 / mixed_ref=1 / me_range=16 / chroma_me=1 / trellis=1 / 8x8dct=1 / cqm=0 / deadzone=21,11 / fast_pskip=1 / chroma_qp_offset=-2 / threads=12 / lookahead_threads=2 / sliced_threads=0 / nr=0 / decimate=1 / interlaced=0 / bluray_compat=0 / constrained_intra=0 / bframes=3 / b_pyramid=2 / b_adapt=1 / b_bias=0 / direct=1 / weightb=1 / open_gop=0 / weightp=2 / keyint=240 / keyint_min=24 / scenecut=40 / intra_refresh=0 / rc_lookahead=40 / rc=abr / mbtree=1 / bitrate=10000 / ratetol=1.0 / qcomp=0.60 / qpmin=0 / qpmax=69 / qpstep=4 / vbv_maxrate=62500 / vbv_bufsize=78125 / nal_hrd=none / ip_ratio=1.40 / aq=1:1.00
Language                                 : English
Default                                  : Yes
Forced                                   : No
Color range                              : Limited
Color primaries                          : BT.709
Transfer characteristics                 : BT.709
Matrix coefficients                      : BT.709

Audio
ID                                       : 2
Format                                   : DTS
Format/Info                              : Digital Theater Systems
Mode                                     : 16
Format settings, Endianness              : Big
Codec ID                                 : A_DTS
Duration                                 : 1h 55mn
Bit rate mode                            : Constant
Bit rate                                 : 1 509 Kbps
Channel(s)                               : 6 channels
Channel positions                        : Front: L C R, Side: L R, LFE
Sampling rate                            : 48.0 KHz
Bit depth                                : 24 bits
Compression mode                         : Lossy
Stream size                              : 1.22 GiB (13%)
Language                                 : English
Default                                  : Yes
Forced                                   : No

Text #1
ID                                       : 3
Format                                   : PGS
Muxing mode                              : zlib
Codec ID                                 : S_HDMV/PGS
Codec ID/Info                            : Picture based subtitle format used on BDs/HD-DVDs
Language                                 : English
Default                                  : No
Forced                                   : No

Text #2
ID                                       : 4
Format                                   : PGS
Muxing mode                              : zlib
Codec ID                                 : S_HDMV/PGS
Codec ID/Info                            : Picture based subtitle format used on BDs/HD-DVDs
Language                                 : Spanish
Default                                  : No
Forced                                   : No

Text #3
ID                                       : 5
Format                                   : PGS
Muxing mode                              : zlib
Codec ID                                 : S_HDMV/PGS
Codec ID/Info                            : Picture based subtitle format used on BDs/HD-DVDs
Language                                 : English
Default                                  : No
Forced                                   : No

Menu
00:00:00.000                             : en:Chapter 1
00:02:20.723                             : en:Chapter 2
00:06:36.562                             : en:Chapter 3
00:10:45.227                             : en:Chapter 4
00:13:09.121                             : en:Chapter 5
00:15:33.307                             : en:Chapter 7
00:17:48.734                             : en:Chapter 8
00:19:57.279                             : en:Chapter 9
00:21:49.141                             : en:Chapter 10
00:24:10.073                             : en:Chapter 11
00:29:04.951                             : en:Chapter 12
00:33:58.578                             : en:Chapter 13
00:35:17.990                             : en:Chapter 14
00:38:30.891                             : en:Chapter 15
00:44:26.163                             : en:Chapter 16
00:47:38.313                             : en:Chapter 17
00:49:10.739                             : en:Chapter 18
00:52:25.433                             : en:Chapter 19
01:03:00.985                             : en:Chapter 20
01:07:16.240                             : en:Chapter 21
01:16:37.259                             : en:Chapter 22
01:21:44.274                             : en:Chapter 23
01:24:39.741                             : en:Chapter 24
01:29:25.318                             : en:Chapter 25
01:34:29.288                             : en:Chapter 26
01:47:49.629                             : en:Chapter 27
01:49:28.061                             : en:Chapter 28

Subtitulos