67
PUNTOS
Calificar
CALIFICA
Calificar
Califica y/o escribe un comentario sobre la película.
Comentarios en el foroFORO

Mal de pierres (2016)

Adaptación de la novela "Mal de Pierres". Sigue los pasos durante 20 años de una sofisticada mujer, que tras contraer matrimonio con un hombre después de la II Guerra Mundial, se enamora de un enfermo que conoce en un balneario al que acude para tratar las piedras que tiene en su riñón.
Director Nicole Garcia
Actores Marion Cotillard, Louis Garrel, Alex Brendemühl
Duración 120 min
País France, Belgium, Canada
Streaming (Servicio externo)
Grupo: RedBlade
Versión: DVDRip x264 AAC
Tamaño: 550 MB
From.The.Land.Of.The.Moon.2016.DVDRip.x264-RedBlade

Video: x264 @ 631 kbps 720x302
Audio: AAC @ 128 kbps
Language: French
Subtitles: English

Subtitulos

Grupo: USURY
Versión: BDRip x264 720p LIMITED DTS
Tamaño: 5.5 GB
From.the.Land.of.the.Moon.2016.LIMITED.720p.BluRay.x264-USURY

Video...: 1280x528 4972kb/s @ 24.000fps
Audio...: French 1509kb/s 6ch DTS
Subs....: English regular/SDH (muxed .srt)
Size....: 5596.85mb (5868724044bytes)
Runtime.: 2h 0mn
IMDb....: http://www.imdb.com/title/tt3794028

Subtitulos

Grupo: USURY
Versión: BDRip x264 1080p LIMITED DTS
Tamaño: 9.8 GB
From.the.Land.of.the.Moon.2016.LIMITED.1080p.BluRay.x264-USURY

Video...: 1920x800 10155kb/s @ 24.000fps
Audio...: French 1509kb/s 6ch DTS
Subs....: English regular/SDH (muxed .srt)
Size....: 10070.80mb (10560003608bytes)
Runtime.: 2h 0mn
IMDb....: http://www.imdb.com/title/tt3794028

Subtitulos

Grupo: EXTREME
Versión: DVDRip XviD
Tamaño: 1.4 GB
Mal.de.Pierres.2016.FRENCH.DVDRip.XviD-EXTREME

General
Complete name                  : Mal.de.Pierres.2016.FRENCH.DVDRip.XviD-EXTREME.avi
Format                         : AVI
Format/Info                    : Audio Video Interleave
Format settings                : rec
File size                      : 1.37 GiB
Duration                       : 1h 55mn
Overall bit rate               : 1 694 Kbps
Writing application            : AVI-Mux GUI 1.17.8, Aug 30 2008  12:36:58

Video
ID                             : 0
Format                         : MPEG-4 Visual
Format profile                 : Advanced Simple@L5
Format settings, BVOP          : 1
Format settings, QPel          : No
Format settings, GMC           : No warppoints
Format settings, Matrix        : Default (H.263)
Muxing mode                    : Packed bitstream
Codec ID                       : XVID
Codec ID/Hint                  : XviD
Duration                       : 1h 55mn
Bit rate                       : 1 490 Kbps
Width                          : 720 pixels
Height                         : 292 pixels
Display aspect ratio           : 2.466
Frame rate                     : 25.000 fps
Color space                    : YUV
Chroma subsampling             : 4:2:0
Bit depth                      : 8 bits
Scan type                      : Progressive
Compression mode               : Lossy
Bits/(Pixel*Frame)             : 0.283
Stream size                    : 1.21 GiB (88%)
Writing library                : XviD 1.2.1 (UTC 2008-12-04)

Audio
ID                             : 1
Format                         : MPEG Audio
Format version                 : Version 1
Format profile                 : Layer 3
Mode                           : Joint stereo
Mode extension                 : MS Stereo
Codec ID                       : 55
Codec ID/Hint                  : MP3
Duration                       : 1h 55mn
Bit rate mode                  : Constant
Bit rate                       : 128 Kbps
Channel(s)                     : 2 channels
Sampling rate                  : 48.0 KHz
Compression mode               : Lossy
Stream size                    : 106 MiB (8%)
Alignment                      : Aligned on interleaves
Title                          : M
Writing library                : LAME3.99r
Encoding settings              : -m j -V 4 -q 2 -lowpass 17 -b 128

Subtitulos

Grupo: LOST
Versión: BDRip x264 720p DTS
Tamaño: 5.5 GB
Mal.de.pierres.2016.FRENCH.720p.BluRay.x264-LOST

Release Date ..............: 17-02-2017
Video Codec ...............: x264
Video Resolution ..........: 1280 x 536
Video Bitrate .............: 4 975 Kbps
Runtime ...................: 02:00:33
Audio .....................: French DTS 1509 Kbps
Subs ......................: ---

Subtitulos

Grupo: LOST
Versión: BDRip x264 1080p DTS
Tamaño: 8.7 GB
Mal.de.pierres.2016.FRENCH.1080p.BluRay.x264-LOST

Release Date ..............: 17-02-2017
Video Codec ...............: x264
Video Resolution ..........: 1920 x 800
Video Bitrate .............: 8 873 Kbps
Runtime ...................: 02:00:33
Audio .....................: French DTS 1509 Kbps
Subs ......................: ---

Subtitulos

Trailer