66
PUNTOS
Calificar
CALIFICA
Calificar
Califica y/o escribe un comentario sobre la película.
Comentarios en el foroFORO

Headshot (2016)

Un hombre despierta en un hospital, incapaz de recordar quién es. Poco a poco y con la ayuda de una doctora, se va recuperando. Sin embargo, su pasado no tarda en alcanzarle, cuando un capo de la droga secuestra a la médica. El desmemoriado Ishmael deberá enfrentarse a una banda de luchadores que, quizá, fueron también sus compañeros.
Director Kimo Stamboel, Timo Tjahjanto
Actores Iko Uwais, Chelsea Islan, Sunny Pang
Duración 118 min
País Indonesia
Streaming (Servicio externo)
Grupo: FGT
Versión: WEB-DL x264 AAC
Tamaño: 1 GB
Headshot.2016.INDONESIAN.WEB-DL.x264-FGT

Video
ID                                       : 1
Format                                   : AVC
Format/Info                              : Advanced Video Codec
Format profile                           : High@L3.1
Format settings, CABAC                   : Yes
Format settings, ReFrames                : 5 frames
Codec ID                                 : avc1
Codec ID/Info                            : Advanced Video Coding
Duration                                 : 1h 58mn
Bit rate                                 : 1 100 Kbps
Width                                    : 720 pixels
Height                                   : 304 pixels
Display aspect ratio                     : 2.40:1
Original display aspect ratio            : 2.40:1
Frame rate mode                          : Constant
Frame rate                               : 23.976 (24000/1001) fps
Color space                              : YUV
Chroma subsampling                       : 4:2:0
Bit depth                                : 8 bits
Scan type                                : Progressive
Bits/(Pixel*Frame)                       : 0.210
Stream size                              : 914 MiB (89%)
Title                                    : Headshot.2016.INDONESIAN.WEB-DL.x264-FGT
Writing library                          : x264 core 148 r2597M e86f3a1
Encoding settings                        : cabac=1 / ref=5 / deblock=1:-2:-2 / analyse=0x3:0x113 / me=umh / subme=8 / psy=1 / psy_rd=0.90:0.00 / mixed_ref=1 / me_range=16 / chroma_me=1 / trellis=1 / 8x8dct=1 / cqm=0 / deadzone=21,11 / fast_pskip=1 / chroma_qp_offset=-2 / threads=40 / lookahead_threads=4 / sliced_threads=0 / nr=0 / decimate=1 / interlaced=0 / bluray_compat=0 / constrained_intra=0 / bframes=3 / b_pyramid=2 / b_adapt=2 / b_bias=0 / direct=3 / weightb=1 / open_gop=0 / weightp=2 / keyint=250 / keyint_min=25 / scenecut=40 / intra_refresh=0 / rc_lookahead=50 / rc=abr / mbtree=1 / bitrate=1100 / ratetol=1.0 / qcomp=0.60 / qpmin=0 / qpmax=69 / qpstep=4 / vbv_maxrate=31250 / vbv_bufsize=31250 / nal_hrd=none / filler=0 / ip_ratio=1.40 / aq=1:1.00
Language                                 : English

Audio
ID                                       : 2
Format                                   : AAC
Format/Info                              : Advanced Audio Codec
Format profile                           : LC
Codec ID                                 : 40
Duration                                 : 1h 58mn
Duration_LastFrame                       : 32ms
Bit rate mode                            : Variable
Bit rate                                 : 128 Kbps
Maximum bit rate                         : 31.3 Mbps
Channel(s)                               : 2 channels
Channel positions                        : Front: L R
Sampling rate                            : 48.0 KHz
Frame rate                               : 46.875 fps (1024 spf)
Compression mode                         : Lossy
Stream size                              : 108 MiB (11%)
Title                                    : Headshot.2016.INDONESIAN.WEB-DL.x264-FGT
Language                                 : Indonesian
Default                                  : Yes
Alternate group                          : 1

Subtitulos

Grupo: FGT
Versión: WEB-DL XviD 720p AC3
Tamaño: 4.3 GB
Headshot.2016.INDONESIAN.720p.WEB-DL.XviD.AC3-FGT

Video
ID                                       : 0
Format                                   : MPEG-4 Visual
Format profile                           : Simple@L5
Format settings, BVOP                    : No
Format settings, QPel                    : No
Format settings, GMC                     : No warppoints
Format settings, Matrix                  : Default (H.263)
Codec ID                                 : XVID
Codec ID/Hint                            : XviD
Duration                                 : 1h 58mn
Bit rate                                 : 4 805 Kbps
Width                                    : 1 280 pixels
Height                                   : 534 pixels
Display aspect ratio                     : 2.40:1
Frame rate                               : 23.976 fps
Color space                              : YUV
Chroma subsampling                       : 4:2:0
Bit depth                                : 8 bits
Scan type                                : Progressive
Compression mode                         : Lossy
Bits/(Pixel*Frame)                       : 0.293
Stream size                              : 3.97 GiB (92%)
Writing library                          : Lavc57.24.102

Audio
ID                                       : 1
Format                                   : AC-3
Format/Info                              : Audio Coding 3
Mode extension                           : CM (complete main)
Format settings, Endianness              : Big
Codec ID                                 : 2000
Duration                                 : 1h 58mn
Bit rate mode                            : Constant
Bit rate                                 : 384 Kbps
Channel(s)                               : 6 channels
Channel positions                        : Front: L C R, Side: L R, LFE
Sampling rate                            : 48.0 KHz
Frame rate                               : 31.250 fps (1536 spf)
Compression mode                         : Lossy
Stream size                              : 325 MiB (7%)
Alignment                                : Aligned on interleaves
Interleave, duration                     : 42 ms (1.00 video frame)
Interleave, preload duration             : 512 ms

Subtitulos

Grupo: FGT
Versión: WEB-DL H.264 1080p AC3
Tamaño: 4.1 GB
Headshot.2016.INDONESIAN.1080p.WEB-DL.DD5.1.H264-FGT

Video
ID                                       : 1
Format                                   : AVC
Format/Info                              : Advanced Video Codec
Format profile                           : High@L4
Format settings, CABAC                   : Yes
Format settings, ReFrames                : 5 frames
Codec ID                                 : V_MPEG4/ISO/AVC
Duration                                 : 1h 58mn
Bit rate                                 : 4 436 Kbps
Width                                    : 1 920 pixels
Height                                   : 804 pixels
Display aspect ratio                     : 2.40:1
Frame rate mode                          : Constant
Frame rate                               : 23.976 (24000/1001) fps
Color space                              : YUV
Chroma subsampling                       : 4:2:0
Bit depth                                : 8 bits
Scan type                                : Progressive
Bits/(Pixel*Frame)                       : 0.120
Stream size                              : 3.67 GiB (90%)
Title                                    : Headshot.2016.INDONESIAN.1080p.WEB-DL.DD5.1.H264-FGT
Language                                 : English
Default                                  : Yes
Forced                                   : No
Color range                              : Limited
Color primaries                          : BT.709
Transfer characteristics                 : BT.709
Matrix coefficients                      : BT.709

Audio
ID                                       : 2
Format                                   : AC-3
Format/Info                              : Audio Coding 3
Mode extension                           : CM (complete main)
Format settings, Endianness              : Big
Codec ID                                 : A_AC3
Duration                                 : 1h 58mn
Bit rate mode                            : Constant
Bit rate                                 : 384 Kbps
Channel(s)                               : 6 channels
Channel positions                        : Front: L C R, Side: L R, LFE
Sampling rate                            : 48.0 KHz
Frame rate                               : 31.250 fps (1536 spf)
Compression mode                         : Lossy
Stream size                              : 325 MiB (8%)
Title                                    : Headshot.2016.INDONESIAN.1080p.WEB-DL.DD5.1.H264-FGT
Language                                 : Indonesian
Default                                  : Yes
Forced                                   : No

Text
ID                                       : 3
Format                                   : UTF-8
Codec ID                                 : S_TEXT/UTF8
Codec ID/Info                            : UTF-8 Plain Text
Language                                 : English
Default                                  : Yes
Forced                                   : Yes

Menu
00:00:00.000                             : en:1
00:07:23.000                             : en:2
00:12:25.000                             : en:3
00:18:06.000                             : en:4
00:24:07.000                             : en:5
00:30:10.000                             : en:6
00:35:54.000                             : en:7
00:42:31.000                             : en:8
00:48:27.000                             : en:9
00:54:30.000                             : en:10
01:00:28.000                             : en:11
01:06:34.000                             : en:12
01:12:41.000                             : en:13
01:18:56.000                             : en:14
01:24:52.000                             : en:15
01:30:20.000                             : en:16
01:36:25.000                             : en:17
01:41:37.000                             : en:18
01:48:30.000                             : en:19
01:54:39.000                             : en:20

Subtitulos

Grupo: BiPOLAR
Versión: BDRip x264 AAC LIMITED
Tamaño: 800 MB
X 1  X----------------------------------------------------------.
X  6 X>> Headshot.2016.LIMITED.BDRip.x264-BiPOLAR .............
X !  X-;--------------------------------------------------------\'
X____X> Video  < 720x302 776kb/s @ crf19 23.976fps ............
X R  X----------------------------------------------------------\'
X  E X> Audio  < Indonesian 144kb/s 2ch AAC ...................
X L  X----------------------------------------------------------\'
X  E X> Subs   < English (muxed .srt) .........................
X A  X----------------------------------------------------------\'
X  S X> Size   < 795.03mb (833659166bytes) ....................
X E  X----------------------------------------------------------\'
X    X> Length < 1h 58mn ......................................
X  I X----------------------------------------------------------\'
X N  X> IMDb   < http://www.imdb.com/title/tt5147214 ..........
X  F X----------------------------------------------------------\'
X O  X> Notes  < Hi ...........................................
X  ! X           ..............................................
X----X           ..............................................
__    _----------------------------------------------------------\'

Subtitulos

Grupo: USURY
Versión: BDRip x264 720p LIMITED DTS
Tamaño: 5.5 GB
Headshot.2016.LIMITED.720p.BluRay.x264-USURY

Video...: 1280x536 5094kb/s @ 23.976fps
Audio...: Indonesian 1509kb/s 6ch DTS
Subs....: English (muxed .srt)
Size....: 5588.27mb (5859731355bytes)
Runtime.: 1h 58mn
IMDb....: http://www.imdb.com/title/tt5222918

Subtitulos

Grupo: USURY
Versión: BDRip x264 1080p LIMITED DTS
Tamaño: 9.8 GB
Headshot.2016.LIMITED.1080p.BluRay.x264-USURY

Video...: 1920x808 10375kb/s @ 23.976fps
Audio...: Indonesian 1509kb/s 6ch DTS
Subs....: English (muxed .srt)
Size....: 10055.66mb (10544124170bytes)
Runtime.: 1h 58mn
IMDb....: http://www.imdb.com/title/tt5222918

Subtitulos

Trailer