66
PUNTOS
Calificar
CALIFICA
Calificar
Califica y/o escribe un comentario sobre la película.
Comentarios en el foroFORO

Power Rangers (2017)

La película sigue a cinco jóvenes predestinados a convertirse en algo extraordinario cuando descubren que tanto su modesto poblado, Angel Grove, como el resto del mundo, están al borde de la aniquilación por una amenaza alienígena. Nuestros héroes descubren rápidamente que son los únicos que pueden salvar al planeta, pero para lograrlo tendrán que superar problemas de la vida real y unirse bajo el nombre de Power Rangers antes de que sea demasiado tarde.
Director Dean Israelite
Actores Dacre Montgomery, Naomi Scott, RJ Cyler
País USA, Hong Kong, Japan, Mexico, Canada, New Zealand
Streaming (Servicio externo)
Grupo: GECKOS
Versión: BDRip x264 AAC
Tamaño: 1 GB
Power.Rangers.2017.BDRip.x264-GECKOS

Date         : 16.06.2017
URL          : http://www.imdb.com/title/tt3717490
Video        : X264 @ crf 19
Resolution   : 720x300
Size         : 1026MB (1076318782 Bytes)
Audio        : AAC LC 2ch 48.0 KHz
Language     : English
Subtitles    :  English
Runtime      : 2h 3mn

Subtitulos

Grupo: GECKOS
Versión: BDRip x264 720p AC3
Tamaño: 5.5 GB
Power.Rangers.2017.720p.BluRay.x264-GECKOS

Date         : 16.06.2017
URL          : http://www.imdb.com/title/tt3717490
X264 bitrate : 5669Kbps
Resolution   : 1280x536
Size         : 5594MB (5866099905 Bytes)
Audio        : AC-3 640Kbps 6ch
Language     : English
Subtitles    :  English
Runtime      : 2h 3mn

Subtitulos

Grupo: GECKOS
Versión: BDRip x264 1080p AC3
Tamaño: 7.6 GB
Power.Rangers.2017.1080p.BluRay.x264-GECKOS

Date         : 15.06.2017
URL          : http://www.imdb.com/title/tt3717490
Video        : X264 @ 8186Kbps
Resolution   : 1920x800
Size         : 7826MB (8206407253 Bytes)
Audio        : AC3 640Kbps 6ch
Language     : English
Subtitles    : English
Runtime      : 2h 3mn

Subtitulos

Grupo: TERMiNAL
Versión: BDRip x265 2160p AC3 / Atmos
Tamaño: 17 GB
Power.Rangers.2017.2160p.UHD.BluRay.x265-TERMiNAL

Video
ID                                       : 1
Format                                   : HEVC
Format/Info                              : High Efficiency Video Coding
Format profile                           : Main 10@L5.1@High
Codec ID                                 : V_MPEGH/ISO/HEVC
Duration                                 : 2 h 3 min
Bit rate                                 : 13.8 Mb/s
Width                                    : 3 840 pixels
Height                                   : 1 600 pixels
Display aspect ratio                     : 2.40:1
Frame rate mode                          : Constant
Frame rate                               : 23.976 (24000/1001) FPS
Color space                              : YUV
Chroma subsampling                       : 4:2:0 (Type 2)
Bit depth                                : 10 bits
Bits/(Pixel*Frame)                       : 0.094
Stream size                              : 11.9 GiB (71%)
Writing library                          : x265 2.5+27-0e168bdeb48b:[Windows][GCC 6.2.1][64 bit] 10bit
Encoding settings                        : cpuid=1173503 / frame-threads=4 / numa-pools=20 / wpp / no-pmode / no-pme / no-psnr / no-ssim / log-level=2 / input-csp=1 / input-res=3840x1600 / interlace=0 / total-frames=178364 / level-idc=51 / high-tier=1 / uhd-bd=0 / ref=4 / no-allow-non-conformance / repeat-headers / annexb / aud / hrd / info / hash=0 / no-temporal-layers / no-open-gop / min-keyint=1 / keyint=24 / bframes=4 / b-adapt=2 / b-pyramid / bframe-bias=0 / rc-lookahead=25 / lookahead-slices=4 / scenecut=40 / no-intra-refresh / ctu=64 / min-cu-size=8 / rect / no-amp / max-tu-size=32 / tu-inter-depth=1 / tu-intra-depth=1 / limit-tu=0 / rdoq-level=2 / dynamic-rd=0.00 / no-ssim-rd / signhide / no-tskip / nr-intra=0 / nr-inter=0 / no-constrained-intra / no-strong-intra-smoothing / max-merge=3 / limit-refs=3 / limit-modes / me=3 / subme=3 / merange=57 / temporal-mvp / weightp / no-weightb / no-analyze-src-pics / deblock=-3:-3 / no-sao / no-sao-non-deblock / rd=4 / no-early-skip / rskip / no-fast-intra / no-tskip-fast / no-cu-lossless / no-b-intra / no-splitrd-skip / rdpenalty=0 / psy-rd=2.00 / psy-rdoq=1.00 / no-rd-refine / analysis-reuse-mode=0 / no-lossless / cbqpoffs=0 / crqpoffs=0 / rc=crf / crf=17.0 / qcomp=0.60 / qpstep=4 / stats-write=0 / stats-read=0 / vbv-maxrate=160000 / vbv-bufsize=160000 / vbv-init=0.9 / crf-max=0.0 / crf-min=0.0 / ipratio=1.40 / pbratio=1.30 / aq-mode=1 / aq-strength=1.00 / cutree / zone-count=0 / no-strict-cbr / qg-size=32 / no-rc-grain / qpmax=69 / qpmin=0 / no-const-vbv / sar=1 / overscan=0 / videoformat=5 / range=0 / colorprim=9 / transfer=16 / colormatrix=9 / chromaloc=1 / chromaloc-top=2 / chromaloc-bottom=2 / display-window=0 / master-display=G(13250,34500)B(7500,3000)R(34000,16000)WP(15635,16450)L(40000000,50) / max-cll=1000,657 / min-luma=0 / max-luma=1023 / log2-max-poc-lsb=8 / vui-timing-info / vui-hrd-info / slices=1 / opt-qp-pps / opt-ref-list-length-pps / no-multi-pass-opt-rps / scenecut-bias=0.05 / no-opt-cu-delta-qp / no-aq-motion / hdr / hdr-opt / no-dhdr10-opt / analysis-reuse-level=5 / scale-factor=0 / refine-intra=0 / refine-inter=0 / refine-mv=0 / no-limit-sao / ctu-info=0
Default                                  : Yes
Forced                                   : No
Color range                              : Limited
Color primaries                          : BT.2020
Transfer characteristics                 : SMPTE ST 2084
Matrix coefficients                      : BT.2020 non-constant
Mastering display color primaries        : R: x=0.680000 y=0.320000, G: x=0.265000 y=0.690000, B: x=0.150000 y=0.060000, White point: x=0.312700 y=0.329000
Mastering display luminance              : min: 0.0050 cd/m2, max: 4000.0000 cd/m2
Maximum Content Light Level              : 1000 cd/m2
Maximum Frame-Average Light Level        : 657 cd/m2

Audio #1
ID                                       : 2
Format                                   : TrueHD
Format profile                           : TrueHD+Atmos / TrueHD
Codec ID                                 : A_TRUEHD
Duration                                 : 2 h 3 min
Bit rate mode                            : Variable
Bit rate                                 : 4 893 kb/s
Maximum bit rate                         : 8 565 kb/s
Channel(s)                               : Object Based / 8 channels
Channel positions                        : Object Based / Front: L C R, Side: L R, Back: L R, LFE
Sampling rate                            :  / 48.0 kHz
Frame rate                               : 1 200.000 FPS (40 spf)
Compression mode                         : Lossless
Stream size                              : 4.24 GiB (25%)
Language                                 : English
Default                                  : Yes
Forced                                   : No

Audio #2
ID                                       : 3
Format                                   : AC-3
Format/Info                              : Audio Coding 3
Format settings, Endianness              : Big
Codec ID                                 : A_AC3
Duration                                 : 2 h 3 min
Bit rate mode                            : Constant
Bit rate                                 : 640 kb/s
Channel(s)                               : 6 channels
Channel positions                        : Front: L C R, Side: L R, LFE
Sampling rate                            : 48.0 kHz
Frame rate                               : 31.250 FPS (1536 spf)
Bit depth                                : 16 bits
Compression mode                         : Lossy
Stream size                              : 568 MiB (3%)
Language                                 : English
Service kind                             : Complete Main
Default                                  : No
Forced                                   : No

Audio #3
ID                                       : 4
Format                                   : AAC
Format/Info                              : Advanced Audio Codec
Format profile                           : LC
Codec ID                                 : A_AAC
Duration                                 : 2 h 3 min
Bit rate                                 : 113 kb/s
Channel(s)                               : 2 channels
Channel positions                        : Front: L R
Sampling rate                            : 48.0 kHz
Frame rate                               : 46.875 FPS (1024 spf)
Compression mode                         : Lossy
Delay relative to video                  : 9 ms
Stream size                              : 100 MiB (1%)
Title                                    : Commentary with director Dean Israelite and writer John Gatins
Language                                 : English
Default                                  : No
Forced                                   : No

Text #1
ID                                       : 5
Format                                   : PGS
Muxing mode                              : zlib
Codec ID                                 : S_HDMV/PGS
Codec ID/Info                            : Picture based subtitle format used on BDs/HD-DVDs
Duration                                 : 1 h 55 min
Bit rate                                 : 41.8 kb/s
Count of elements                        : 3780
Stream size                              : 34.4 MiB (0%)
Title                                    : SDH
Language                                 : English
Default                                  : No
Forced                                   : No

Text #2
ID                                       : 6
Format                                   : PGS
Muxing mode                              : zlib
Codec ID                                 : S_HDMV/PGS
Codec ID/Info                            : Picture based subtitle format used on BDs/HD-DVDs
Duration                                 : 1 h 55 min
Bit rate                                 : 32.3 kb/s
Count of elements                        : 3192
Stream size                              : 26.6 MiB (0%)
Language                                 : Spanish
Default                                  : No
Forced                                   : No

Menu
00:00:00.000                             : en:00:00:00.000
00:07:00.253                             : en:00:07:00.253
00:13:45.241                             : en:00:13:45.241
00:18:57.720                             : en:00:18:57.720
00:25:49.590                             : en:00:25:49.590
00:31:17.125                             : en:00:31:17.125
00:38:25.803                             : en:00:38:25.803
00:50:50.089                             : en:00:50:50.089
01:00:01.264                             : en:01:00:01.264
01:08:10.920                             : en:01:08:10.920
01:17:07.790                             : en:01:17:07.790
01:24:42.786                             : en:01:24:42.786
01:30:46.066                             : en:01:30:46.066
01:34:19.904                             : en:01:34:19.904
01:44:33.976                             : en:01:44:33.976
01:51:47.200                             : en:01:51:47.200
Grupo: NoGRP
Versión: NTSC AC3 AudioLatino
Tamaño: 575 MB
Sin delay:

Power.Rangers.2017.BDRip.x264-GECKOS
Power.Rangers.2017.720p.BluRay.x264-GECKOS
Power.Rangers.2017.1080p.BluRay.x264-GECKOS

Audio proporcionado por: bishup
Trailer