80
PUNTOS
Calificar
CALIFICA
Calificar
Califica y/o escribe un comentario sobre la película.
Comentarios en el foroFORO

Systemsprenger (2019)

En su salvaje búsqueda de amor, la enérgica e indomable Benni, una niña de 9 años abandonada por su madre y que vive en una familia de acogida, lleva a todos a su alrededor a la desesperación.
Director Nora Fingscheidt
Actores Helena Zengel, Albrecht Schuch, Gabriela Maria Schmeide, Lisa Hagmeister
Duración 118 min
Streaming (Servicio externo)
Grupo: BiPOLAR
Versión: BDRip x264 AAC
Tamaño: 893 MB
X  6 X>> System.Crasher.2019.BDRip.x264-BiPOLAR ...............

X____X> Video  < 720x390 886kb/s @ crf19 25.000fps ............
X R  X----------------------------------------------------------\'
X  E X> Audio  < German 135kb/s 2ch AAC .......................
X L  X----------------------------------------------------------\'
X  E X> Subs   < English/German regular/SDH (muxed .srt) ......
X A  X----------------------------------------------------------\'
X  S X> Size   < 893.21mb (936596709bytes) ....................
X E  X----------------------------------------------------------\'
X    X> Length < 2h 0mn .......................................
X  I X----------------------------------------------------------\'
X N  X> IMDb   < https://www.imdb.com/title/tt8535968 .........
X  F X----------------------------------------------------------\'
X O  X> Notes  < Hi ...........................................

Subtitulos

Grupo: USURY
Versión: BDRip x264 720p DTS
Tamaño: 4.4 GB
Video...: 1280x696 4444kb/s @ 25.000fps
Audio...: German 768kb/s 6ch DTS
Subs....: English/German regular/SDH (muxed .srt)
Size....: 4476.07mb (4693504781bytes)
Runtime.: 2h 0mn
IMDb....: https://www.imdb.com/title/tt8535968

Subtitulos

Grupo: USURY
Versión: BDRip x264 1080p DTS
Tamaño: 7.6 GB
Video...: 1920x1040 8358kb/s @ 25.000fps
Audio...: German 768kb/s 6ch DTS
Subs....: English/German regular/SDH (muxed .srt)
Size....: 7834.00mb (8214545589bytes)
Runtime.: 2h 0mn
IMDb....: https://www.imdb.com/title/tt8535968

Subtitulos

Grupo: NTG
Versión: WEB-DL x264 720p
Tamaño: 3.0 GB
Video
ID : 1
Format : AVC
Format/Info : Advanced Video Codec
Format profile : [email protected]
Format settings : CABAC / 3 Ref Frames
Format settings, CABAC : Yes
Format settings, Reference frames : 3 frames
Codec ID : V_MPEG4/ISO/AVC
Duration : 2 h 0 min
Bit rate mode : Variable
Bit rate : 2 870 kb/s
Maximum bit rate : 4 305 kb/s
Width : 1 280 pixels
Height : 720 pixels
Display aspect ratio : 16:9
Frame rate mode : Constant
Frame rate : 25.000 FPS
Color space : YUV
Chroma subsampling : 4:2:0
Bit depth : 8 bits
Scan type : Progressive
Bits/(Pixel*Frame) : 0.125
Stream size : 2.41 GiB (82%)
Writing library : x264 core 148 r2715 7e75228
Encoding settings : cabac=1 / ref=3 / deblock=1:0:0 / analyse=0x1:0x111 / me=umh / subme=10 / psy=1 / psy_rd=1.00:0.00 / mixed_ref=1 / me_range=24 / chroma_me=1 / trellis=2 / 8x8dct=0 / cqm=0 / deadzone=21,11 / fast_pskip=1 / chroma_qp_offset=-2 / threads=6 / lookahead_threads=1 / sliced_threads=0 / nr=0 / decimate=1 / interlaced=0 / bluray_compat=0 / stitchable=1 / constrained_intra=0 / bframes=2 / b_pyramid=0 / b_adapt=2 / b_bias=0 / direct=3 / weightb=1 / open_gop=0 / weightp=2 / keyint=250 / keyint_min=25 / scenecut=0 / intra_refresh=0 / rc_lookahead=50 / rc=2pass / mbtree=1 / bitrate=2870 / ratetol=1.0 / qcomp=0.50 / qpmin=6 / qpmax=51 / qpstep=4 / cplxblur=20.0 / qblur=0.5 / vbv_maxrate=4305 / vbv_bufsize=5740 / nal_hrd=vbr / filler=0 / ip_ratio=1.40 / aq=1:1.00
Default : Yes
Forced : No

Audio
ID : 2
Format : E-AC-3
Format/Info : Enhanced AC-3
Commercial name : Dolby Digital Plus
Codec ID : A_EAC3
Duration : 2 h 0 min
Bit rate mode : Constant
Bit rate : 640 kb/s
Channel(s) : 6 channels
Channel layout : L R C LFE Ls Rs
Sampling rate : 48.0 kHz
Frame rate : 31.250 FPS (1536 SPF)
Compression mode : Lossy
Stream size : 551 MiB (18%)
Title : German
Language : German
Service kind : Complete Main
Default : Yes
Forced : No

Text #1
ID : 3
Format : UTF-8
Codec ID : S_TEXT/UTF8
Codec ID/Info : UTF-8 Plain Text
Duration : 3 s 240 ms
Bit rate : 49 b/s
Count of elements : 1
Stream size : 20.0 Bytes (0%)
Title : Forced
Language : German
Default : Yes
Forced : Yes

Text #2
ID : 4
Format : UTF-8
Codec ID : S_TEXT/UTF8
Codec ID/Info : UTF-8 Plain Text
Duration : 1 h 59 min
Bit rate : 43 b/s
Count of elements : 1499
Stream size : 38.2 KiB (0%)
Title : SDH
Language : English
Default : No
Forced : No

Text #3
ID : 5
Format : UTF-8
Codec ID : S_TEXT/UTF8
Codec ID/Info : UTF-8 Plain Text
Duration : 1 h 59 min
Bit rate : 36 b/s
Count of elements : 1283
Stream size : 31.9 KiB (0%)
Language : English
Default : No
Forced : No

Text #4
ID : 6
Format : UTF-8
Codec ID : S_TEXT/UTF8
Codec ID/Info : UTF-8 Plain Text
Duration : 1 h 59 min
Bit rate : 43 b/s
Count of elements : 1361
Stream size : 38.6 KiB (0%)
Language : German
Default : No
Forced : No

Text #5
ID : 7
Format : UTF-8
Codec ID : S_TEXT/UTF8
Codec ID/Info : UTF-8 Plain Text
Duration : 1 h 59 min
Bit rate : 47 b/s
Count of elements : 1444
Stream size : 41.5 KiB (0%)
Title : SDH
Language : German
Default : No
Forced : No
Grupo: NTG
Versión: WEB-DL x264 1080p
Tamaño: 5.0 GB
Video
ID : 1
Format : AVC
Format/Info : Advanced Video Codec
Format profile : [email protected]
Format settings : CABAC / 3 Ref Frames
Format settings, CABAC : Yes
Format settings, Reference frames : 3 frames
Codec ID : V_MPEG4/ISO/AVC
Duration : 2 h 0 min
Bit rate mode : Variable
Bit rate : 5 360 kb/s
Maximum bit rate : 8 040 kb/s
Width : 1 920 pixels
Height : 1 080 pixels
Display aspect ratio : 16:9
Frame rate mode : Constant
Frame rate : 25.000 FPS
Color space : YUV
Chroma subsampling : 4:2:0
Bit depth : 8 bits
Scan type : Progressive
Bits/(Pixel*Frame) : 0.103
Stream size : 4.49 GiB (89%)
Writing library : x264 core 148 r2715 7e75228
Encoding settings : cabac=1 / ref=3 / deblock=1:0:0 / analyse=0x1:0x111 / me=umh / subme=10 / psy=1 / psy_rd=1.00:0.00 / mixed_ref=1 / me_range=24 / chroma_me=1 / trellis=2 / 8x8dct=0 / cqm=0 / deadzone=21,11 / fast_pskip=1 / chroma_qp_offset=-2 / threads=6 / lookahead_threads=1 / sliced_threads=0 / nr=0 / decimate=1 / interlaced=0 / bluray_compat=0 / stitchable=1 / constrained_intra=0 / bframes=2 / b_pyramid=0 / b_adapt=2 / b_bias=0 / direct=3 / weightb=1 / open_gop=0 / weightp=2 / keyint=250 / keyint_min=25 / scenecut=0 / intra_refresh=0 / rc_lookahead=50 / rc=2pass / mbtree=1 / bitrate=5360 / ratetol=1.0 / qcomp=0.50 / qpmin=6 / qpmax=51 / qpstep=4 / cplxblur=20.0 / qblur=0.5 / vbv_maxrate=8040 / vbv_bufsize=10720 / nal_hrd=vbr / filler=0 / ip_ratio=1.40 / aq=1:1.00
Default : Yes
Forced : No

Audio
ID : 2
Format : E-AC-3
Format/Info : Enhanced AC-3
Commercial name : Dolby Digital Plus
Codec ID : A_EAC3
Duration : 2 h 0 min
Bit rate mode : Constant
Bit rate : 640 kb/s
Channel(s) : 6 channels
Channel layout : L R C LFE Ls Rs
Sampling rate : 48.0 kHz
Frame rate : 31.250 FPS (1536 SPF)
Compression mode : Lossy
Stream size : 551 MiB (11%)
Title : German
Language : German
Service kind : Complete Main
Default : Yes
Forced : No

Text #1
ID : 3
Format : UTF-8
Codec ID : S_TEXT/UTF8
Codec ID/Info : UTF-8 Plain Text
Duration : 3 s 240 ms
Bit rate : 49 b/s
Count of elements : 1
Stream size : 20.0 Bytes (0%)
Title : Forced
Language : German
Default : Yes
Forced : Yes

Text #2
ID : 4
Format : UTF-8
Codec ID : S_TEXT/UTF8
Codec ID/Info : UTF-8 Plain Text
Duration : 1 h 59 min
Bit rate : 43 b/s
Count of elements : 1499
Stream size : 38.2 KiB (0%)
Title : SDH
Language : English
Default : No
Forced : No

Text #3
ID : 5
Format : UTF-8
Codec ID : S_TEXT/UTF8
Codec ID/Info : UTF-8 Plain Text
Duration : 1 h 59 min
Bit rate : 36 b/s
Count of elements : 1283
Stream size : 31.9 KiB (0%)
Language : English
Default : No
Forced : No

Text #4
ID : 6
Format : UTF-8
Codec ID : S_TEXT/UTF8
Codec ID/Info : UTF-8 Plain Text
Duration : 1 h 59 min
Bit rate : 43 b/s
Count of elements : 1361
Stream size : 38.6 KiB (0%)
Language : German
Default : No
Forced : No

Text #5
ID : 7
Format : UTF-8
Codec ID : S_TEXT/UTF8
Codec ID/Info : UTF-8 Plain Text
Duration : 1 h 59 min
Bit rate : 47 b/s
Count of elements : 1444
Stream size : 41.5 KiB (0%)
Title : SDH
Language : German
Default : No
Forced : No
Trailer