64
PUNTOS
Calificar
CALIFICA
Calificar
Califica y/o escribe un comentario sobre la película.
Comentarios en el foroFORO

L'immortale (2019)

La historia de Ciro Di Marzio, uno de los protagonistas de la serie "Gomorra". Es 1980, la tierra tiembla, el edificio se derrumba y el único que sobrevive es un bebé recién nacido: se llama Ciro Di Marzio pero, a partir de ese día, todos lo llamarán 'el Inmortal'. Desde Nápoles en los años 80 hasta un pasado reciente, la película cuenta los orígenes y la formación de uno de los personajes más queridos de la aclamada serie sobre la camorra napolitana. Desde su infancia en la calle hasta el contrabando, desde los primeros robos hasta los muertos asesinados: todo para sobrevivir en un mundo donde la inmortalidad es básicamente una condena... Dirigida por el propio actor Marco D'Amore.
Director Marco D'Amore
Actores Marco D'Amore, Giuseppe Aiello, Salvatore D'Onofrio, Gianni Vastarella
Duración 116 min
Streaming (Servicio externo)
Grupo: FGT
Versión: BDRip x264 1080p DTS
Tamaño: 10.5 GB
Video
ID : 1
Format : AVC
Format/Info : Advanced Video Codec
Format profile : [email protected]
Format settings : CABAC / 4 Ref Frames
Format settings, CABAC : Yes
Format settings, Reference frames : 4 frames
Codec ID : V_MPEG4/ISO/AVC
Duration : 1 h 55 min
Bit rate : 11.5 Mb/s
Width : 1 920 pixels
Height : 804 pixels
Display aspect ratio : 2.40:1
Frame rate mode : Constant
Frame rate : 24.000 FPS
Color space : YUV
Chroma subsampling : 4:2:0
Bit depth : 8 bits
Scan type : Progressive
Bits/(Pixel*Frame) : 0.310
Stream size : 9.27 GiB (88%)
Title : The.Immortal.2019.ITALIAN.1080p.BluRay.x264.DTS-FGT
Writing library : x264 core 148 r2795M aaa9aa8
Encoding settings : cabac=1 / ref=4 / deblock=1:-2:-2 / analyse=0x3:0x113 / me=umh / subme=9 / psy=1 / psy_rd=1.00:0.15 / mixed_ref=1 / me_range=16 / chroma_me=1 / trellis=2 / 8x8dct=1 / cqm=0 / deadzone=21,11 / fast_pskip=1 / chroma_qp_offset=-3 / threads=24 / lookahead_threads=3 / sliced_threads=0 / nr=0 / decimate=1 / interlaced=0 / bluray_compat=0 / constrained_intra=0 / bframes=3 / b_pyramid=2 / b_adapt=1 / b_bias=0 / direct=3 / weightb=1 / open_gop=0 / weightp=2 / keyint=250 / keyint_min=25 / scenecut=40 / intra_refresh=0 / rc_lookahead=50 / rc=2pass / mbtree=1 / bitrate=11500 / ratetol=1.0 / qcomp=0.60 / qpmin=0 / qpmax=69 / qpstep=4 / cplxblur=20.0 / qblur=0.5 / vbv_maxrate=31250 / vbv_bufsize=31250 / nal_hrd=none / filler=0 / ip_ratio=1.40 / aq=1:1.00
Language : Italian
Default : Yes
Forced : No

Audio
ID : 2
Format : DTS
Format/Info : Digital Theater Systems
Codec ID : A_DTS
Duration : 1 h 55 min
Bit rate mode : Constant
Bit rate : 1 509 kb/s
Channel(s) : 6 channels
Channel layout : C L R Ls Rs LFE
Sampling rate : 48.0 kHz
Frame rate : 93.750 FPS (512 SPF)
Bit depth : 16 bits
Compression mode : Lossy
Stream size : 1.22 GiB (12%)
Title : The.Immortal.2019.ITALIAN.1080p.BluRay.x264.DTS-FGT
Language : Italian
Default : Yes
Forced : No

Text
ID : 3
Format : UTF-8
Codec ID : S_TEXT/UTF8
Codec ID/Info : UTF-8 Plain Text
Duration : 1 h 48 min
Bit rate : 25 b/s
Count of elements : 720
Stream size : 20.2 KiB (0%)
Language : English
Default : Yes
Forced : No

Menu
00:00:00.000 : en:The Earthquake
00:05:13.792 : en:Another Chance
00:16:08.375 : en:New Business
00:25:17.500 : en:The First Years
00:33:16.500 : en:Business Matter
00:42:13.208 : en:One Of The Family
00:48:12.375 : en:The Right Group
00:57:29.625 : en:The Courage To Change
01:09:10.167 : en:Irreconcilable Worlds
01:15:57.500 : en:Violent Retaliation
01:31:22.208 : en:Resolution
01:46:55.167 : en:The Encounter

Subtitulos

Trailer