58
PUNTOS
Calificar
CALIFICA
Calificar
Califica y/o escribe un comentario sobre la película.
Comentarios en el foroFORO

Last and First Men (2017)

No aparece ninguna persona en esta película, pero en ella destacan tres protagonistas muy especiales: los testimonios del brutalismo yugoslavo; la voz de Tilda Swinton y la música de Jóhann Jóhannsson, compositor de la banda sonora de "Sicario" y "Arrival", fallecido en 2018 a los 48 años. Jóhannsson grabó distintos cortometrajes con elementos visuales que empleaba en sus obras musicales. La idea de su primer largometraje surgió en 2010, cuando se inspiró en las fotografías de Jan Kempenaers. En "Last and First Men" se dan cita elementos del universo de Kubrick y Tarr, una síntesis de imágenes y sonidos en el que el pasado más lejano se da cita con el futuro más distante.
Director Jóhann Jóhannsson
Actores Tilda Swinton
Duración 70 min
Streaming (Servicio externo)
Grupo: FGT
Versión: BDRip x264 1080p
Tamaño: 6.4 GB
Video
ID : 1
Format : AVC
Format/Info : Advanced Video Codec
Format profile : [email protected]
Format settings : CABAC / 4 Ref Frames
Format settings, CABAC : Yes
Format settings, Reference frames : 4 frames
Codec ID : V_MPEG4/ISO/AVC
Duration : 1 h 10 min
Bit rate : 11.5 Mb/s
Width : 1 756 pixels
Height : 1 068 pixels
Display aspect ratio : 16:10
Frame rate mode : Constant
Frame rate : 24.000 FPS
Color space : YUV
Chroma subsampling : 4:2:0
Bit depth : 8 bits
Scan type : Progressive
Bits/(Pixel*Frame) : 0.255
Stream size : 5.68 GiB (88%)
Title : Last.and.First.Men.2020.1080p.BluRay.x264.DTS-FGT
Writing library : x264 core 148 r2795M aaa9aa8
Encoding settings : cabac=1 / ref=4 / deblock=1:-2:-2 / analyse=0x3:0x113 / me=umh / subme=9 / psy=1 / psy_rd=1.00:0.15 / mixed_ref=1 / me_range=16 / chroma_me=1 / trellis=2 / 8x8dct=1 / cqm=0 / deadzone=21,11 / fast_pskip=1 / chroma_qp_offset=-3 / threads=72 / lookahead_threads=3 / sliced_threads=0 / nr=0 / decimate=1 / interlaced=0 / bluray_compat=0 / constrained_intra=0 / bframes=3 / b_pyramid=2 / b_adapt=1 / b_bias=0 / direct=3 / weightb=1 / open_gop=0 / weightp=2 / keyint=250 / keyint_min=25 / scenecut=40 / intra_refresh=0 / rc_lookahead=50 / rc=2pass / mbtree=1 / bitrate=11500 / ratetol=1.0 / qcomp=0.60 / qpmin=0 / qpmax=69 / qpstep=4 / cplxblur=20.0 / qblur=0.5 / vbv_maxrate=31250 / vbv_bufsize=31250 / nal_hrd=none / filler=0 / ip_ratio=1.40 / aq=1:1.00
Language : English
Default : Yes
Forced : No

Audio
ID : 2
Format : DTS
Format/Info : Digital Theater Systems
Codec ID : A_DTS
Duration : 1 h 10 min
Bit rate mode : Constant
Bit rate : 1 509 kb/s
Channel(s) : 6 channels
Channel layout : C L R Ls Rs LFE
Sampling rate : 48.0 kHz
Frame rate : 93.750 FPS (512 SPF)
Bit depth : 24 bits
Compression mode : Lossy
Stream size : 764 MiB (12%)
Title : Last.and.First.Men.2020.1080p.BluRay.x264.DTS-FGT
Language : English
Default : Yes
Forced : No

Text
ID : 3
Format : UTF-8
Codec ID : S_TEXT/UTF8
Codec ID/Info : UTF-8 Plain Text
Duration : 1 h 2 min
Bit rate : 23 b/s
Count of elements : 221
Stream size : 10.8 KiB (0%)
Language : English
Default : Yes
Forced : No

Menu
00:00:00.000 : en:Prelude
00:03:50.500 : en:Introduction
00:07:41.000 : en:A Minor Astronomical Event
00:09:02.292 : en:A Move to Neptune
00:11:43.417 : en:Physical Description of the Last Human Beings
00:16:30.458 : en:Architecture
00:23:13.000 : en:Childhood / Land of the Young
00:29:28.000 : en:Telepathic Unity
00:31:35.708 : en:The Navigators
00:37:47.000 : en:A New Doom
00:41:30.583 : en:Two Tasks
00:43:13.500 : en:No. 1: The Scattering of Seeds
00:44:43.000 : en:No. 2: Communicating with the Past
00:49:11.000 : en:Slow Destruction of Neptune
00:58:00.625 : en:The Universal End
01:06:26.000 : en:Credits

Subtitulos

Grupo: EA
Versión: BDRip x264 720p
Tamaño: 8.2 GB
General
Unique ID : 326616869158347791018044157356558528251 (0xF5B81EF1090A37E98F0BCE32104C2EFB)
Complete name : Last.and.First.Men.2020.720p.BluRay.DD5.1.x264-EA/Last and First Men 2020 720p BluRay DD5.1 x264-EA.mkv
Format : Matroska
Format version : Version 4 / Version 2
File size : 8.23 GiB
Duration : 1 h 10 min
Overall bit rate : 16.7 Mb/s
Movie name : J?hann J?hannsson - Last and First Men (2020)
Encoded date : UTC 2020-05-24 10:41:38
Writing application : mkvmerge v46.0.0 ('No Deeper Escape') 64-bit
Writing library : libebml v1.3.10 + libmatroska v1.5.2

Video
ID : 1
Format : AVC
Format/Info : Advanced Video Codec
Format profile : [email protected]
Format settings : CABAC / 9 Ref Frames
Format settings, CABAC : Yes
Format settings, ReFrames : 9 frames
Codec ID : V_MPEG4/ISO/AVC
Duration : 1 h 10 min
Bit rate : 16.0 Mb/s
Width : 1 186 pixels
Height : 720 pixels
Display aspect ratio : 16:10
Frame rate mode : Constant
Frame rate : 24.000 FPS
Color space : YUV
Chroma subsampling : 4:2:0
Bit depth : 8 bits
Scan type : Progressive
Bits/(Pixel*Frame) : 0.781
Stream size : 7.91 GiB (96%)
Title : -EA
Writing library : x264 core 160 r3000+53 e3e4c3e t_mod_New [(8 & 10)[email protected] X86_64]
Encoding settings : cabac=1 / ref=9 / deblock=1:-3:-3 / analyse=0x3:0x133 / me=umh / subme=10 / psy=1 / fade_compensate=0.00 / psy_rd=1.08:0.00 / mixed_ref=1 / me_range=32 / chroma_me=1 / trellis=2 / 8x8dct=1 / cqm=0 / deadzone=21,11 / fast_pskip=0 / chroma_qp_offset=-2 / threads=18 / lookahead_threads=4 / sliced_threads=0 / nr=0 / decimate=0 / interlaced=0 / bluray_compat=0 / constrained_intra=0 / fgo=0 / bframes=13 / b_pyramid=2 / b_adapt=2 / b_bias=0 / direct=3 / weightb=1 / open_gop=0 / weightp=2 / keyint=240 / keyint_min=24 / scenecut=40 / intra_refresh=0 / rc_lookahead=60 / rc=crf / mbtree=0 / crf=19.4000 / qcomp=0.65 / qpmin=0:0:0 / qpmax=69:69:69 / qpstep=4 / vbv_maxrate=62500 / vbv_bufsize=78125 / crf_max=0.0 / nal_hrd=none / filler=0 / ip_ratio=1.30 / pb_ratio=1.20 / aq=3:0.60 / aq-sensitivity=10.00 / aq-factor=1.00:1.00:1.00 / aq2=0 / aq3=0
Language : English
Default : Yes
Forced : No
Color range : Limited
Color primaries : BT.709
Transfer characteristics : BT.709
Matrix coefficients : BT.709

Audio
ID : 2
Format : AC-3
Format/Info : Audio Coding 3
Codec ID : A_AC3
Duration : 1 h 10 min
Bit rate mode : Constant
Bit rate : 640 kb/s
Channel(s) : 6 channels
Channel positions : Front: L C R, Side: L R, LFE
Sampling rate : 48.0 kHz
Frame rate : 31.250 FPS (1536 SPF)
Bit depth : 16 bits
Compression mode : Lossy
Stream size : 324 MiB (4%)
Language : English
Service kind : Complete Main
Default : Yes
Forced : No

Text #1
ID : 3
Format : UTF-8
Codec ID : S_TEXT/UTF8
Codec ID/Info : UTF-8 Plain Text
Duration : 1 h 2 min
Bit rate : 23 b/s
Count of elements : 221
Stream size : 10.8 KiB (0%)
Title : srt
Language : English
Default : No
Forced : No

Text #2
ID : 4
Format : PGS
Muxing mode : zlib
Codec ID : S_HDMV/PGS
Codec ID/Info : Picture based subtitle format used on BDs/HD-DVDs
Duration : 1 h 2 min
Bit rate : 15.3 kb/s
Count of elements : 442
Stream size : 6.90 MiB (0%)
Title : sup
Language : English
Default : No
Forced : No

Menu
00:00:00.000 : en:Prelude
00:03:50.500 : en:Introduction
00:07:41.000 : en:A Minor Astronomical Event
00:09:02.292 : en:A Move to Neptune
00:11:43.417 : en:Physical Description of the Last Human Beings
00:16:30.458 : en:Architecture
00:23:13.000 : en:Childhood / Land of the Young
00:29:28.000 : en:Telepathic Unity
00:31:35.708 : en:The Navigators
00:37:47.000 : en:A New Doom
00:41:30.583 : en:Two Tasks
00:43:13.500 : en:No. 1: The Scattering of Seeds
00:44:43.000 : en:No. 2: Communicating with the Past
00:49:11.000 : en:Slow Destruction of Neptune
00:58:00.625 : en:The Universal End
01:06:26.000 : en:Credits

Subtitulos

Trailer