65
PUNTOS
Calificar
CALIFICA
Calificar
Califica y/o escribe un comentario sobre la película.
Comentarios en el foroFORO

Das Vorspiel (2019)

Anna enseña violín en una escuela para jóvenes músicos en Berlín. En contra del criterio de sus colegas, la profesora aprueba el ingreso de Alexander, un chico en el que detecta un notable talento. Le instruye con gran dedicación y afecto, y pronto le dedica más atención que a su propio hijo. Surge la rivalidad entre ambos chicos, mientras el matrimonio de Anna se tambalea. Pero donde ella falló, su talentoso alumno debe tener éxito, y a medida que se acerca una audición importante, Anna se obsesiona cada vez más con llevarle a lo más alto.
Director Ina Weisse
Actores Nina Hoss, Simon Abkarian, Jens Albinus, Ilja Monti
Duración 90 min
Streaming (Servicio externo)
Grupo: PsLM
Versión: WEB H264 1080p
Tamaño: 3,9 GB
General
Unique ID : 2482768798864316763699828888980212815 (0x1DE29F3DFC0215B72BB19EBEFC4CC4F)
Complete name : Das.Vorspiel.2019.German.1080p.WEB.H264-PsLM.mkv
Format : Matroska
Format version : Version 4
File size : 3.86 GiB
Duration : 1 h 38 min
Overall bit rate : 5 587 kb/s
Encoded date : UTC 2020-07-02 08:36:52
Writing application : mkvmerge v46.0.0 ('No Deeper Escape') 64-bit
Writing library : libebml v1.3.10 + libmatroska v1.5.2

Video
ID : 2
Format : AVC
Format/Info : Advanced Video Codec
Format profile : [email protected]
Format settings : CABAC / 4 Ref Frames
Format settings, CABAC : Yes
Format settings, Reference frames : 4 frames
Codec ID : V_MPEG4/ISO/AVC
Duration : 1 h 38 min
Bit rate : 5 202 kb/s
Width : 1 920 pixels
Height : 1 038 pixels
Display aspect ratio : 1.85:1
Frame rate mode : Constant
Frame rate : 24.000 FPS
Color space : YUV
Chroma subsampling : 4:2:0
Bit depth : 8 bits
Scan type : Progressive
Bits/(Pixel*Frame) : 0.109
Stream size : 3.60 GiB (93%)
Language : English
Default : Yes
Forced : No
Color range : Limited
Color primaries : BT.709
Transfer characteristics : BT.709
Matrix coefficients : BT.709

Audio
ID : 1
Format : AC-3
Format/Info : Audio Coding 3
Commercial name : Dolby Digital
Codec ID : A_AC3
Duration : 1 h 38 min
Bit rate mode : Constant
Bit rate : 384 kb/s
Channel(s) : 6 channels
Channel layout : L R C LFE Ls Rs
Sampling rate : 48.0 kHz
Frame rate : 31.250 FPS (1536 SPF)
Compression mode : Lossy
Delay relative to video : -42 ms
Stream size : 272 MiB (7%)
Language : German
Service kind : Complete Main
Default : Yes
Forced : No

Menu
00:00:00.000 : en:Kapitel 1
00:12:34.166 : en:Kapitel 2
00:22:01.999 : en:Kapitel 3
00:32:33.414 : en:Kapitel 4
00:40:30.039 : en:Kapitel 5
00:52:23.997 : en:Kapitel 6
01:03:44.205 : en:Kapitel 7
01:11:50.246 : en:Kapitel 8
01:20:41.871 : en:Kapitel 9
01:34:06.412 : en:Kapitel 10
01:38:58.995 : en:Kapitel 1

Subtitulos

Trailer