64
PUNTOS
Calificar
CALIFICA
Calificar
Califica y/o escribe un comentario sobre la película.
Comentarios en el foroFORO

Ghost Stories (2018)

El escéptico profesor Phillip Goodman (Andy Nyman) se embarca en un viaje hacia lo terrorífico tras encontrarse un archivo con detalles de tres casos inexplicables de apariciones.
Director Jeremy Dyson, Andy Nyman
Actores Andy Nyman, Martin Freeman, Paul Whitehouse, Alex Lawther
Duración 98 min
Streaming (Servicio externo)
Grupo: AMIABLE
Versión: BDRip x264 1080p
Tamaño: 6.6 GB
Video
ID : 1
Format : AVC
Format/Info : Advanced Video Codec
Format profile : [email protected]
Format settings : CABAC / 5 Ref Frames
Format settings, CABAC : Yes
Format settings, Reference frames : 5 frames
Codec ID : V_MPEG4/ISO/AVC
Duration : 1 h 37 min
Bit rate : 8 096 kb/s
Width : 1 920 pixels
Height : 808 pixels
Display aspect ratio : 2.40:1
Frame rate mode : Constant
Frame rate : 24.000 FPS
Color space : YUV
Chroma subsampling : 4:2:0
Bit depth : 8 bits
Scan type : Progressive
Bits/(Pixel*Frame) : 0.217
Stream size : 5.39 GiB (82%)
Writing library : x264 core 155 r2901 7d0ff22
Encoding settings : cabac=1 / ref=5 / deblock=1:-3:-3 / analyse=0x3:0x113 / me=umh / subme=8 / psy=1 / psy_rd=1.00:0.00 / mixed_ref=1 / me_range=32 / chroma_me=1 / trellis=2 / 8x8dct=1 / cqm=0 / deadzone=21,11 / fast_pskip=1 / chroma_qp_offset=-2 / threads=6 / lookahead_threads=1 / sliced_threads=0 / nr=0 / decimate=1 / interlaced=0 / bluray_compat=0 / constrained_intra=0 / bframes=3 / b_pyramid=2 / b_adapt=2 / b_bias=0 / direct=3 / weightb=1 / open_gop=0 / weightp=2 / keyint=240 / keyint_min=24 / scenecut=40 / intra_refresh=0 / rc_lookahead=50 / rc=2pass / mbtree=1 / bitrate=8096 / ratetol=1.0 / qcomp=0.60 / qpmin=0 / qpmax=69 / qpstep=4 / cplxblur=20.0 / qblur=0.5 / ip_ratio=1.40 / aq=3:0.80
Default : Yes
Forced : No
Statistics Tags Issue : no_variable_data 1970-01-01 00:00:00 / no_variable_data 2010-02-22 21:41:29
FromStats_BitRate : 8089873
FromStats_Duration : 01:37:44.042000000
FromStats_FrameCount : 140737
FromStats_StreamSize : 5929919530

Audio
ID : 2
Format : DTS
Format/Info : Digital Theater Systems
Codec ID : A_DTS
Duration : 1 h 37 min
Bit rate mode : Constant
Bit rate : 1 509 kb/s
Channel(s) : 6 channels
Channel layout : C L R Ls Rs LFE
Sampling rate : 48.0 kHz
Frame rate : 93.750 FPS (512 SPF)
Bit depth : 24 bits
Compression mode : Lossy
Stream size : 1.03 GiB (16%)
Language : English
Default : Yes
Forced : No
Statistics Tags Issue : no_variable_data 1970-01-01 00:00:00 / no_variable_data 2010-02-22 21:41:29
FromStats_BitRate : 1508999
FromStats_Duration : 01:37:43.958000000
FromStats_FrameCount : 549746
FromStats_StreamSize : 1106088952

Text #1
ID : 3
Format : UTF-8
Codec ID : S_TEXT/UTF8
Codec ID/Info : UTF-8 Plain Text
Language : English
Default : No
Forced : No
Statistics Tags Issue : no_variable_data 1970-01-01 00:00:00 / no_variable_data 2010-02-22 21:41:29
FromStats_BitRate : 42
FromStats_Duration : 01:30:35.291000000
FromStats_FrameCount : 902
FromStats_StreamSize : 29010

Text #2
ID : 4
Format : UTF-8
Codec ID : S_TEXT/UTF8
Codec ID/Info : UTF-8 Plain Text
Title : SDH
Language : English
Default : No
Forced : No
Statistics Tags Issue : no_variable_data 1970-01-01 00:00:00 / no_variable_data 2010-02-22 21:41:29
FromStats_BitRate : 46
FromStats_Duration : 01:32:01.666000000
FromStats_FrameCount : 1063
FromStats_StreamSize : 32381

Menu
00:00:00.000 : en:00:00:00.000
00:07:53.208 : en:00:07:53.208
00:15:05.542 : en:00:15:05.542
00:26:07.000 : en:00:26:07.000
00:36:25.958 : en:00:36:25.958
00:39:51.000 : en:00:39:51.000
00:47:26.375 : en:00:47:26.375
00:58:00.000 : en:00:58:00.000
01:00:41.333 : en:01:00:41.333
01:05:58.583 : en:01:05:58.583
01:17:30.167 : en:01:17:30.167
01:23:53.792 : en:01:23:53.792

Subtitulos

Grupo: AMIABLE
Versión: BDRip x264 720p
Tamaño: 4.4 GB
Video
ID : 1
Format : AVC
Format/Info : Advanced Video Codec
Format profile : [email protected]
Format settings : CABAC / 5 Ref Frames
Format settings, CABAC : Yes
Format settings, RefFrames : 5 frames
Codec ID : V_MPEG4/ISO/AVC
Duration : 1 h 37 min
Bit rate : 4 892 kb/s
Width : 1 280 pixels
Height : 536 pixels
Display aspect ratio : 2.40:1
Frame rate mode : Constant
Frame rate : 24.000 FPS
Color space : YUV
Chroma subsampling : 4:2:0
Bit depth : 8 bits
Scan type : Progressive
Bits/(Pixel*Frame) : 0.297
Stream size : 3.25 GiB (74%)
Writing library : x264 core 155 r2901 7d0ff22
Encoding settings : cabac=1 / ref=5 / deblock=1:-3:-3 / analyse=0x3:0x113 / me=umh / subme=8 / psy=1 / psy_rd=1.00:0.00 / mixed_ref=1 / me_range=24 / chroma_me=1 / trellis=2 / 8x8dct=1 / cqm=0 / deadzone=21,11 / fast_pskip=1 / chroma_qp_offset=-2 / threads=6 / lookahead_threads=1 / sliced_threads=0 / nr=0 / decimate=1 / interlaced=0 / bluray_compat=0 / constrained_intra=0 / bframes=3 / b_pyramid=2 / b_adapt=2 / b_bias=0 / direct=3 / weightb=1 / open_gop=0 / weightp=2 / keyint=240 / keyint_min=24 / scenecut=40 / intra_refresh=0 / rc_lookahead=50 / rc=2pass / mbtree=1 / bitrate=4892 / ratetol=1.0 / qcomp=0.60 / qpmin=0 / qpmax=69 / qpstep=4 / cplxblur=20.0 / qblur=0.5 / ip_ratio=1.40 / aq=3:0.80
Default : Yes
Forced : No
Statistics Tags Issue : no_variable_data 1970-01-01 00:00:00 / no_variable_data 2010-02-22 21:41:29
FromStats_BitRate : 4890669
FromStats_Duration : 01:37:44.042000000
FromStats_FrameCount : 140737
FromStats_StreamSize : 3584886477

Audio
ID : 2
Format : DTS
Format/Info : Digital Theater Systems
Mode : 16
Format settings, Endianness : Big
Codec ID : A_DTS
Duration : 1 h 37 min
Bit rate mode : Constant
Bit rate : 1 509 kb/s
Channel(s) : 6 channels
Channel positions : Front: L C R, Side: L R, LFE
Sampling rate : 48.0 kHz
Frame rate : 93.750 FPS (512 SPF)
Bit depth : 24 bits
Compression mode : Lossy
Stream size : 1.03 GiB (24%)
Language : English
Default : Yes
Forced : No
Statistics Tags Issue : no_variable_data 1970-01-01 00:00:00 / no_variable_data 2010-02-22 21:41:29
FromStats_BitRate : 1508999
FromStats_Duration : 01:37:43.958000000
FromStats_FrameCount : 549746
FromStats_StreamSize : 1106088952

Text #1
ID : 3
Format : UTF-8
Codec ID : S_TEXT/UTF8
Codec ID/Info : UTF-8 Plain Text
Language : English
Default : No
Forced : No
Statistics Tags Issue : no_variable_data 1970-01-01 00:00:00 / no_variable_data 2010-02-22 21:41:29
FromStats_BitRate : 42
FromStats_Duration : 01:30:35.291000000
FromStats_FrameCount : 902
FromStats_StreamSize : 29010

Text #2
ID : 4
Format : UTF-8
Codec ID : S_TEXT/UTF8
Codec ID/Info : UTF-8 Plain Text
Title : SDH
Language : English
Default : No
Forced : No
Statistics Tags Issue : no_variable_data 1970-01-01 00:00:00 / no_variable_data 2010-02-22 21:41:29
FromStats_BitRate : 46
FromStats_Duration : 01:32:01.666000000
FromStats_FrameCount : 1063
FromStats_StreamSize : 32381

Menu
00:00:00.000 : en:00:00:00.000
00:07:53.208 : en:00:07:53.208
00:15:05.542 : en:00:15:05.542
00:26:07.000 : en:00:26:07.000
00:36:25.958 : en:00:36:25.958
00:39:51.000 : en:00:39:51.000
00:47:26.375 : en:00:47:26.375
00:58:00.000 : en:00:58:00.000
01:00:41.333 : en:01:00:41.333
01:05:58.583 : en:01:05:58.583
01:17:30.167 : en:01:17:30.167
01:23:53.792 : en:01:23:53.792

Subtitulos

Grupo: AMIABLE
Versión: BDRip x264
Tamaño: 345 MB
                   
           __ .---.
       __ /  `  .-.7,--.
      /  `. .-''. -,  , \
      '--.-    -;   | ) /
      ,` /   \ ,_) /   '-.            
     /  (  (  |   /  .' ) \           AMIABLE presents:
     '.  `--,/   .---' ,-.|           
       `--.  / '-, -' .'              Ghost.Stories.2017.BDRip.X264-AMIABLE
      .==,=; `-,.;--'                 
     / ,'  _;--;|                     Date .....: 08/2018
    /_...=' you are my                Runtime ..: 01:37:44
               || .==,=.              Video ....: 720x302 (24.000fps @ CRF 19)
               ||/    '.\             Lang .....: English
              ,||`'=...__\            Subs .....: English
               ||                     IMDB .....: https://www.imdb.com/title/tt5516328/
      sweetest downfall..             BOM ......: https://www.boxofficemojo.com/movies/?page=intl&country=UK&id=ghoststories.htm
               ||,                    Genre ....: Drama, Horror  
               ||                      
               ||                     Notes ....: A few scenes with different borders, so some will appear undercropped.   
              ,||                       
               ||                     
       I loved you first              
               ||                     
               ||,                 
               ||                  
                                          Tomorrow's just your future yesterday!

Subtitulos

Trailer