60
PUNTOS
Calificar
CALIFICA
Calificar
Califica y/o escribe un comentario sobre la película.
Comentarios en el foroFORO

Gloria Mundi (2019)

Una familia se reúne en Marsella para celebrar el nacimiento de la pequeña Gloria. A pesar de que todos se alegran, la vida es dura y viven tiempos difíciles. Pero al ambicioso tío de Gloria se le ocurre una idea para un negocio que podría sacarles del mal momento.
Director Robert Guédiguian
Actores Ariane Ascaride, Jean-Pierre Darroussin, Gérard Meylan, Anaïs Demoustier
Duración 106 min
Streaming (Servicio externo)
Grupo: EDPH
Versión: BDRip x264 1080p
Tamaño: 10.9 GB
General
Unique ID : 137884956610743623874252126851445632751 (0x67BBAD3B03528DB3DA52AD9974892EEF)
Complete name : Gloria.Mundi.2019.1080p.BluRay.x264.DD.5.1-EDPH.mkv
Format : Matroska
Format version : Version 4
File size : 10.9 GiB
Duration : 1 h 47 min
Overall bit rate : 14.5 Mb/s
Encoded date : UTC 2020-09-14 23:52:02
Writing application : mkvmerge v48.0.0 ('Fortress Around Your Heart') 64-bit
Writing library : libebml v1.4.0 + libmatroska v1.6.0

Video
ID : 1
Format : AVC
Format/Info : Advanced Video Codec
Format profile : [email protected]
Format settings : CABAC / 4 Ref Frames
Format settings, CABAC : Yes
Format settings, Reference frames : 4 frames
Codec ID : V_MPEG4/ISO/AVC
Duration : 1 h 47 min
Bit rate : 13.9 Mb/s
Width : 1 920 pixels
Height : 1 040 pixels
Display aspect ratio : 1.85:1
Frame rate mode : Constant
Frame rate : 23.976 (24000/1001) FPS
Color space : YUV
Chroma subsampling : 4:2:0
Bit depth : 8 bits
Scan type : Progressive
Bits/(Pixel*Frame) : 0.290
Stream size : 10.4 GiB (95%)
Writing library : x264 core 160 r3000 33f9e14
Encoding settings : cabac=1 / ref=4 / deblock=1:-3:-3 / analyse=0x3:0x133 / me=umh / subme=10 / psy=1 / psy_rd=1.08:0.00 / mixed_ref=1 / me_range=32 / chroma_me=1 / trellis=2 / 8x8dct=1 / cqm=0 / deadzone=21,11 / fast_pskip=0 / chroma_qp_offset=-2 / threads=9 / lookahead_threads=2 / sliced_threads=0 / nr=0 / decimate=0 / interlaced=0 / bluray_compat=0 / constrained_intra=0 / bframes=16 / b_pyramid=2 / b_adapt=2 / b_bias=0 / direct=3 / weightb=1 / open_gop=0 / weightp=2 / keyint=250 / keyint_min=23 / scenecut=40 / intra_refresh=0 / rc_lookahead=250 / rc=crf / mbtree=0 / crf=20.0 / qcomp=0.60 / qpmin=0 / qpmax=69 / qpstep=4 / vbv_maxrate=62500 / vbv_bufsize=78125 / crf_max=0.0 / nal_hrd=none / filler=0 / ip_ratio=1.30 / pb_ratio=1.20 / aq=3:0.82
Language : French
Default : Yes
Forced : No
Color range : Limited
Color primaries : BT.709
Matrix coefficients : BT.709

Audio
ID : 2
Format : AC-3
Format/Info : Audio Coding 3
Commercial name : Dolby Digital
Codec ID : A_AC3
Duration : 1 h 47 min
Bit rate mode : Constant
Bit rate : 640 kb/s
Channel(s) : 6 channels
Channel layout : L R C LFE Ls Rs
Sampling rate : 48.0 kHz
Frame rate : 31.250 FPS (1536 SPF)
Compression mode : Lossy
Stream size : 490 MiB (4%)
Language : French
Service kind : Complete Main
Default : Yes
Forced : No

Text #1
ID : 3
Format : UTF-8
Codec ID : S_TEXT/UTF8
Codec ID/Info : UTF-8 Plain Text
Duration : 1 h 40 min
Bit rate : 46 b/s
Count of elements : 1231
Stream size : 34.0 KiB (0%)
Language : English
Default : Yes
Forced : No

Text #2
ID : 4
ID in the original source medium : 4608 (0x1200)
Format : PGS
Codec ID : S_HDMV/PGS
Codec ID/Info : Picture based subtitle format used on BDs/HD-DVDs
Duration : 1 h 46 min
Bit rate : 23.7 kb/s
Count of elements : 2575
Stream size : 18.1 MiB (0%)
Language : French
Default : No
Forced : No
Original source medium : Blu-ray

Menu
00:00:00.000 : en:Chapter 01
00:09:25.773 : en:Chapter 02
00:18:18.138 : en:Chapter 03
00:28:24.494 : en:Chapter 04
00:38:33.728 : en:Chapter 05
00:46:58.440 : en:Chapter 06
00:55:14.811 : en:Chapter 07
01:05:10.948 : en:Chapter 08
01:13:32.533 : en:Chapter 09
01:23:08.316 : en:Chapter 10
01:33:52.168 : en:Chapter 11
01:43:27.201 : en:Chapter 12

Subtitulos

Trailer