63
PUNTOS
Calificar
CALIFICA
Calificar
Califica y/o escribe un comentario sobre la película.
Comentarios en el foroFORO

In My Room (2018)

Armin es un hombre que se está haciendo demasiado viejo y no es realmente feliz, pero no puede imaginar vivir una vida diferente. Una mañana se despierta: el mundo se ve igual que siempre, pero la humanidad ha desaparecido.
Director Ulrich Köhler
Actores Hans Löw, Elena Radonicich, Michael Wittenborn, Ruth Bickelhaupt
Duración 119 min
Streaming (Servicio externo)
Grupo: Cinefeel
Versión: WEB-DL H264 1080p
Tamaño: 5.0 GB
General
Unique ID : 124007832199132140478226869000623383205 (0x5D4B0A2C35AB31644AAB480518EC62A5)
Complete name : In.My.Room.2018.1080p.AMZN.WEB-DL.DD+5.1.H.264-Cinefeel.mkv
Format : Matroska
Format version : Version 4
File size : 4.99 GiB
Duration : 1 h 59 min
Overall bit rate mode : Variable
Overall bit rate : 5 974 kb/s
Encoded date : UTC 2019-08-24 08:52:55
Writing application : mkvmerge v27.0.0 ('Metropolis') 64-bit
Writing library : libebml v1.3.6 + libmatroska v1.4.9

Video
ID : 2
Format : AVC
Format/Info : Advanced Video Codec
Format profile : [email protected]
Format settings : CABAC / 4 Ref Frames
Format settings, CABAC : Yes
Format settings, RefFrames : 4 frames
Codec ID : V_MPEG4/ISO/AVC
Duration : 1 h 59 min
Bit rate mode : Variable
Bit rate : 5 332 kb/s
Maximum bit rate : 15.0 Mb/s
Width : 1 920 pixels
Height : 1 040 pixels
Display aspect ratio : 1.85:1
Frame rate mode : Constant
Frame rate : 24.000 FPS
Color space : YUV
Chroma subsampling : 4:2:0
Bit depth : 8 bits
Scan type : Progressive
Bits/(Pixel*Frame) : 0.111
Stream size : 4.46 GiB (89%)
Default : Yes
Forced : No
Color range : Limited
Color primaries : BT.709
Transfer characteristics : BT.709
Matrix coefficients : BT.709

Audio
ID : 3
Format : E-AC-3
Format/Info : Enhanced AC-3
Commercial name : Dolby Digital Plus
Codec ID : A_EAC3
Duration : 1 h 59 min
Bit rate mode : Constant
Bit rate : 640 kb/s
Channel(s) : 6 channels
Channel layout : L R C LFE Ls Rs
Sampling rate : 48.0 kHz
Frame rate : 31.250 FPS (1536 SPF)
Compression mode : Lossy
Stream size : 548 MiB (11%)
Language : German
Service kind : Complete Main
Default : Yes
Forced : No

Text
ID : 1
Format : UTF-8
Codec ID : S_TEXT/UTF8
Codec ID/Info : UTF-8 Plain Text
Duration : 1 h 55 min
Bit rate : 19 b/s
Count of elements : 657
Stream size : 16.5 KiB (0%)
Language : German
Default : No
Forced : No

Subtitulos

Trailer