60
PUNTOS
Calificar
CALIFICA
Calificar
Califica y/o escribe un comentario sobre la película.
Comentarios en el foroFORO

Eastern (2020)

Detrás de las puertas de una acaudalada zona residencial se está jugando un juego peculiar. La vida de sus opulentos residentes está regulada por un código honorario y patriarcal. Y es que las familias Kowalski y Nowak han estado enredadas y confrontadas a través de un constante acto de venganza durante años. Bajo la presión de su padre y la comunidad, Ewa Nowak comienza la caza y captura de la joven Klara Kowalski, la asesina de su hermano.
Director Piotr Adamski
Actores Maja Pankiewicz, Paulina Krzyzanska, Marcin Czarnik, Anna Klos-Kleszczewska
Duración 78 min
Streaming (Servicio externo)
Grupo: PSiG
Versión: WEB-DL H264 1080p
Tamaño: 3.1 GB
General
Unique ID : 119733728572005859138966978500333044704 (0x4418B058B9D0153827C08DA2D24E83E0)
Complete name : Eastern.2019.PL.1080p.WEB-DL.H.264-PSiG/Eastern.2019.PL.1080p.WEB-DL.H.264-PSiG.mkv
Format : Matroska
Format version : Version 4
File size : 3.14 GiB
Duration : 1 h 14 min
Overall bit rate : 6 001 kb/s
Encoded date : UTC 2020-10-30 16:39:40
Writing application : mkvmerge v11.0.0 ('Alive') 64bit
Writing library : libebml v1.3.4 + libmatroska v1.4.5

Video
ID : 1
Format : AVC
Format/Info : Advanced Video Codec
Format profile : [email protected]
Format settings : CABAC / 2 Ref Frames
Format settings, CABAC : Yes
Format settings, Reference frames : 2 frames
Format settings, GOP : M=3, N=50
Codec ID : V_MPEG4/ISO/AVC
Duration : 1 h 14 min
Bit rate : 5 870 kb/s
Width : 1 920 pixels
Height : 1 080 pixels
Display aspect ratio : 16:9
Frame rate mode : Constant
Frame rate : 25.000 FPS
Color space : YUV
Chroma subsampling : 4:2:0
Bit depth : 8 bits
Scan type : Progressive
Bits/(Pixel*Frame) : 0.113
Stream size : 3.07 GiB (98%)
Default : Yes
Forced : No

Audio
ID : 2
Format : AAC LC SBR
Format/Info : Advanced Audio Codec Low Complexity with Spectral Band Replication
Commercial name : HE-AAC
Format settings : Explicit
Codec ID : A_AAC-2
Duration : 1 h 14 min
Bit rate : 128 kb/s
Channel(s) : 2 channels
Channel layout : L R
Sampling rate : 96.0 kHz
Frame rate : 46.875 FPS (2048 SPF)
Compression mode : Lossy
Stream size : 68.5 MiB (2%)
Language : Polish
Default : Yes
Forced : No

Subtitulos

Trailer